Download Now

Aerosmith - Rock for the Rising Sun (2013) [BDRip 1080p]

Aerosmith - Rock for the Rising Sun (2013)
BDRip 1080p | MKV | 11635 kbps, 1920x1080 (16:9) at 29.970 fps, AVC ([email protected]) | 8.11 GB
Audio: 640 kbps, 48 khz, 6 channels, AC-3 | Length: 01:34:00
Genre: Rock

In March 2011 Japan was beset by a huge earthquake, a monstrous tsunami and the subsequent meltdown of the Fukushima nuclear plant. In the autumn of 2011, despite advice to the contrary, Aerosmith brought their Back On The Road tour to Japan, a country with which they always had a special relationship. The Japanese fans came out in their droves and Aerosmith responded with some of the finest gigs of their distinguished career. This film follows the band on that tour combining full length live tracks with behind the scenes footage which is at times touching and emotional and at others humorous and insightful. More than anything else it demonstrates the Japanese fans love affair with Aerosmith and their music.

Aerosmith - Rock for the Rising Sun (2013) [BDRip 1080p]

Aerosmith - Rock for the Rising Sun (2013) [BDRip 1080p]

Aerosmith - Rock for the Rising Sun (2013) [BDRip 1080p]

Aerosmith - Rock for the Rising Sun (2013) [BDRip 1080p]

Aerosmith - Rock for the Rising Sun (2013) [BDRip 1080p]


Tracklist
01 - Draw the Line
02 - Love in an Elevator
03 - Livin' on the Edge
04 - Hangman Jury
05 - No More No More
06 - Mama Kin
07 - Monkey on My Back
08 - Toys in the Attic
09 - Listen to the Thunder
10 - Sweet Emotion
11 - Boogie Man
12 - Rats in the Cellar
13 - Movin' Out
14 - Last Child
15 - S.O.S. (Too Bad)
16 - Walk This Way
17 - Train Kept A-Rollin'


MediaInfo

General
Unique ID : 179374701054356059988179159588200305475 (0x86F24F90C28276FE8F536530A598D343)
Complete name : C:\Users\ggu\Desktop\ggu\Aerosmith - Rock for the Rising Sun (2013) 1080p MultiSub x264 BluRay.mkv
Format : Matroska
Format version : Version 4 / Version 2
File size : 8.11 GiB
Duration : 1h 34mn
Overall bit rate : 12.3 Mbps
Encoded date : UTC 2016-07-26 10:01:59
Writing application : mkvmerge v9.3.1 ('Mask Machine') 64bit
Writing library : libebml v1.3.4 + libmatroska v1.4.5

Video
ID : 1
Format : AVC
Format/Info : Advanced Video Codec
Format profile : [email protected]
Format settings, CABAC : Yes
Format settings, ReFrames : 4 frames
Codec ID : V_MPEG4/ISO/AVC
Duration : 1h 34mn
Bit rate : 11.6 Mbps
Width : 1 920 pixels
Height : 1 080 pixels
Display aspect ratio : 16:9
Frame rate mode : Constant
Frame rate : 29.970 (30000/1001) fps
Color space : YUV
Chroma subsampling : 4:2:0
Bit depth : 8 bits
Scan type : Progressive
Bits/(Pixel*Frame) : 0.187
Stream size : 7.68 GiB (95%)
Title : Aerosmith: Rock for the Rising Sun (2013) 1080p x264 - AvgQP=22.596 -Shiv@
Writing library : x264 core 148 r2692 64f4e24
Encoding settings : cabac=1 / ref=4 / deblock=1:-2:-1 / analyse=0x3:0x133 / me=umh / subme=11 / psy=1 / psy_rd=1.00:0.15 / mixed_ref=1 / me_range=32 / chroma_me=1 / trellis=2 / 8x8dct=1 / cqm=0 / deadzone=21,11 / fast_pskip=0 / chroma_qp_offset=-3 / threads=12 / lookahead_threads=1 / sliced_threads=0 / nr=0 / decimate=1 / interlaced=0 / bluray_compat=0 / constrained_intra=0 / bframes=5 / b_pyramid=2 / b_adapt=2 / b_bias=0 / direct=1 / weightb=1 / open_gop=0 / weightp=2 / keyint=300 / keyint_min=29 / scenecut=40 / intra_refresh=0 / rc_lookahead=60 / rc=crf / mbtree=1 / crf=19.5 / qcomp=0.60 / qpmin=0 / qpmax=69 / qpstep=4 / vbv_maxrate=50000 / vbv_bufsize=50000 / crf_max=0.0 / nal_hrd=none / filler=0 / ip_ratio=1.40 / aq=1:1.00
Default : Yes
Forced : No

Audio
ID : 2
Format : AC-3
Format/Info : Audio Coding 3
Mode extension : CM (complete main)
Format settings, Endianness : Big
Codec ID : A_AC3
Duration : 1h 34mn
Bit rate mode : Constant
Bit rate : 640 Kbps
Channel(s) : 6 channels
Channel positions : Front: L C R, Side: L R, LFE
Sampling rate : 48.0 KHz
Frame rate : 31.250 fps (1536 spf)
Compression mode : Lossy
Stream size : 433 MiB (5%)
Title : English Ac3 5.1 chnls 640 kbps
Language : English
Default : Yes
Forced : No

Text #1
ID : 3
Format : UTF-8
Codec ID : S_TEXT/UTF8
Codec ID/Info : UTF-8 Plain Text
Duration : 36mn 51s
Bit rate : 0 bps
Count of elements : 1
Stream size : 0.00 Byte (0%)
Default : Yes
Forced : No

Text #2
ID : 4
Format : VobSub
Muxing mode : zlib
Codec ID : S_VOBSUB
Codec ID/Info : Picture based subtitle format used on DVDs
Duration : 1h 32mn
Bit rate : 1 626 bps
Count of elements : 292
Stream size : 1.08 MiB (0%)
Title : english
Language : English
Default : No
Forced : No

Text #3
ID : 5
Format : VobSub
Muxing mode : zlib
Codec ID : S_VOBSUB
Codec ID/Info : Picture based subtitle format used on DVDs
Duration : 1h 33mn
Bit rate : 1 550 bps
Count of elements : 320
Stream size : 1.03 MiB (0%)
Title : dutch
Language : Dutch
Default : No
Forced : No

Text #4
ID : 6
Format : VobSub
Muxing mode : zlib
Codec ID : S_VOBSUB
Codec ID/Info : Picture based subtitle format used on DVDs
Duration : 1h 33mn
Bit rate : 1 659 bps
Count of elements : 319
Stream size : 1.11 MiB (0%)
Title : french
Language : French
Default : No
Forced : No

Text #5
ID : 7
Format : VobSub
Muxing mode : zlib
Codec ID : S_VOBSUB
Codec ID/Info : Picture based subtitle format used on DVDs
Duration : 1h 33mn
Bit rate : 1 639 bps
Count of elements : 319
Stream size : 1.09 MiB (0%)
Title : german
Language : German
Default : No
Forced : No

Text #6
ID : 8
Format : VobSub
Muxing mode : zlib
Codec ID : S_VOBSUB
Codec ID/Info : Picture based subtitle format used on DVDs
Duration : 1h 33mn
Bit rate : 1 562 bps
Count of elements : 321
Stream size : 1.04 MiB (0%)
Title : italian
Language : Italian
Default : No
Forced : No

Text #7
ID : 9
Format : VobSub
Muxing mode : zlib
Codec ID : S_VOBSUB
Codec ID/Info : Picture based subtitle format used on DVDs
Duration : 1h 33mn
Bit rate : 1 802 bps
Count of elements : 322
Stream size : 1.20 MiB (0%)
Title : portuguese
Language : Portuguese
Default : No
Forced : No

Text #8
ID : 10
Format : VobSub
Muxing mode : zlib
Codec ID : S_VOBSUB
Codec ID/Info : Picture based subtitle format used on DVDs
Duration : 1h 33mn
Bit rate : 1 816 bps
Count of elements : 321
Stream size : 1.21 MiB (0%)
Title : spanish
Language : Spanish
Default : No
Forced : No

Menu
00:00:00.000 : en:00:00:00.000
00:01:10.337 : en:00:01:10.337
00:05:57.490 : en:00:05:57.490
00:13:32.445 : en:00:13:32.445
00:19:10.316 : en:00:19:10.316
00:22:15.568 : en:00:22:15.568
00:28:42.621 : en:00:28:42.621
00:35:49.614 : en:00:35:49.614
00:40:00.098 : en:00:40:00.098
00:43:56.367 : en:00:43:56.367
00:48:58.803 : en:00:48:58.803
00:59:08.478 : en:00:59:08.478
01:01:40.897 : en:01:01:40.897
01:07:18.968 : en:01:07:18.968
01:13:27.270 : en:01:13:27.270
01:22:56.939 : en:01:22:56.939
01:26:32.020 : en:01:26:32.020
01:33:00.041 : en:01:33:00.041
Buy Premium Account To Get Resumable Support & Max Speed

DOWNLOAD LINK

Nitroflare:

jkeu6.Aerosmith..Rock.for.the.Rising.Sun.2013.BDRip.1080p.part01.rar
jkeu6.Aerosmith..Rock.for.the.Rising.Sun.2013.BDRip.1080p.part02.rar
jkeu6.Aerosmith..Rock.for.the.Rising.Sun.2013.BDRip.1080p.part03.rar
jkeu6.Aerosmith..Rock.for.the.Rising.Sun.2013.BDRip.1080p.part04.rar
jkeu6.Aerosmith..Rock.for.the.Rising.Sun.2013.BDRip.1080p.part05.rar
jkeu6.Aerosmith..Rock.for.the.Rising.Sun.2013.BDRip.1080p.part06.rar
jkeu6.Aerosmith..Rock.for.the.Rising.Sun.2013.BDRip.1080p.part07.rar
jkeu6.Aerosmith..Rock.for.the.Rising.Sun.2013.BDRip.1080p.part08.rar
jkeu6.Aerosmith..Rock.for.the.Rising.Sun.2013.BDRip.1080p.part09.rar
jkeu6.Aerosmith..Rock.for.the.Rising.Sun.2013.BDRip.1080p.part10.rar

Bigfile:

jkeu6.Aerosmith..Rock.for.the.Rising.Sun.2013.BDRip.1080p.part01.rar
jkeu6.Aerosmith..Rock.for.the.Rising.Sun.2013.BDRip.1080p.part02.rar
jkeu6.Aerosmith..Rock.for.the.Rising.Sun.2013.BDRip.1080p.part03.rar
jkeu6.Aerosmith..Rock.for.the.Rising.Sun.2013.BDRip.1080p.part04.rar
jkeu6.Aerosmith..Rock.for.the.Rising.Sun.2013.BDRip.1080p.part05.rar
jkeu6.Aerosmith..Rock.for.the.Rising.Sun.2013.BDRip.1080p.part06.rar
jkeu6.Aerosmith..Rock.for.the.Rising.Sun.2013.BDRip.1080p.part07.rar
jkeu6.Aerosmith..Rock.for.the.Rising.Sun.2013.BDRip.1080p.part08.rar
jkeu6.Aerosmith..Rock.for.the.Rising.Sun.2013.BDRip.1080p.part09.rar
jkeu6.Aerosmith..Rock.for.the.Rising.Sun.2013.BDRip.1080p.part10.rar

Uploaded.net:
jkeu6.Aerosmith..Rock.for.the.Rising.Sun.2013.BDRip.1080p.part01.rar
jkeu6.Aerosmith..Rock.for.the.Rising.Sun.2013.BDRip.1080p.part02.rar
jkeu6.Aerosmith..Rock.for.the.Rising.Sun.2013.BDRip.1080p.part03.rar
jkeu6.Aerosmith..Rock.for.the.Rising.Sun.2013.BDRip.1080p.part04.rar
jkeu6.Aerosmith..Rock.for.the.Rising.Sun.2013.BDRip.1080p.part05.rar
jkeu6.Aerosmith..Rock.for.the.Rising.Sun.2013.BDRip.1080p.part06.rar
jkeu6.Aerosmith..Rock.for.the.Rising.Sun.2013.BDRip.1080p.part07.rar
jkeu6.Aerosmith..Rock.for.the.Rising.Sun.2013.BDRip.1080p.part08.rar
jkeu6.Aerosmith..Rock.for.the.Rising.Sun.2013.BDRip.1080p.part09.rar
jkeu6.Aerosmith..Rock.for.the.Rising.Sun.2013.BDRip.1080p.part10.rar

Links are Interchangeable - Single Extraction - Premium is support resumable
Direct Download

Tags: Aerosmith, Rising

Comments
Name:*
E-Mail:*
Add Comments:
Enter Code: *