Download Now

Fergie - Rock In Rio Lisboa (2016) [HDTV, 1080i]

Fergie - Rock In Rio Lisboa (2016)
HDTV 1080i | TS | MPEG4 (H264) 1920x1080 25fps 14.2 Mbps | MPEG Audio 48000Hz stereo 384kbps
Pop | Length: 01:00:15 | 6.47 GB

Fergie Duhamel (born Stacy Ann Ferguson; March 27, 1975) is an American singer, songwriter and actress. She is the female vocalist for the hip hop group The Black Eyed Peas, with whom she has achieved chart success worldwide. Her debut solo album The Dutchess (2006) was a major commercial success on the charts and spawned three Billboard Hot 100 number one singles; "London Bridge", "Glamorous" and "Big Girls Don't Cry".

Fergie - Rock In Rio Lisboa (2016) [HDTV, 1080i]

Fergie - Rock In Rio Lisboa (2016) [HDTV, 1080i]

Fergie - Rock In Rio Lisboa (2016) [HDTV, 1080i]


Tracklist
Hungry
You Already Know
London Bridge
Fergalicious
L.A. Love (La La)
Glamorous
Big Girls Don't Cry
Just Like You
Start Me Up(The Rolling Stones cover)
Black Dog(Led Zeppelin cover)
Barracuda(Heart cover)
Love is Pain
My Humps(The Black Eyed Peas song)
Rock That Body(The Black Eyed Peas song)
Don't Stop the Party(The Black Eyed Peas song)
Party All the Time(The Black Eyed Peas song)
A Little Party Never Killed Nobody (All We Got)
Let's Get It Started(The Black Eyed Peas song)
Imma Be(The Black Eyed Peas song)
Hey Mama(David Guetta song)
Hey Mama(The Black Eyed Peas song)
All of the Lights(Kanye West song)
Boom Boom Pow(The Black Eyed Peas song)
Don't Phunk With My Heart(The Black Eyed Peas song)
Meet Me Halfway(The Black Eyed Peas song)
Pump It(The Black Eyed Peas song)
The Time (The Dirty Bit)(The Black Eyed Peas song)
Gettin' Over You(David Guetta song)
I Gotta Feeling(The Black Eyed Peas song)

MediaInfo

General
ID : 160 (0xA0)
Complete name : F:\Fergie - Rock In Rio Lisboa 2016.ts
Format : MPEG-TS
File size : 6.47 GiB
Duration : 1h 0mn
Overall bit rate mode : Variable
Overall bit rate : 15.4 Mbps

Video
ID : 512 (0x200)
Menu ID : 1 (0x1)
Format : AVC
Format/Info : Advanced Video Codec
Format profile : [email protected]
Format settings, CABAC : Yes
Format settings, ReFrames : 4 frames
Format settings, GOP : M=3, N=15
Codec ID : 27
Duration : 1h 0mn
Bit rate mode : Variable
Bit rate : 14.2 Mbps
Maximum bit rate : 14.5 Mbps
Width : 1 920 pixels
Height : 1 080 pixels
Display aspect ratio : 16:9
Frame rate : 25.000 fps
Color space : YUV
Chroma subsampling : 4:2:0
Bit depth : 8 bits
Scan type : MBAFF
Scan order : Top Field First
Bits/(Pixel*Frame) : 0.274
Stream size : 5.99 GiB (93%)
Color range : Limited
Color primaries : BT.709
Transfer characteristics : BT.709
Matrix coefficients : BT.709

Audio
ID : 4112 (0x1010)
Menu ID : 1 (0x1)
Format : MPEG Audio
Format version : Version 1
Format profile : Layer 2
Mode : Dual mono
Codec ID : 3
Duration : 1h 0mn
Bit rate mode : Constant
Bit rate : 384 Kbps
Channel(s) : 2 channels
Sampling rate : 48.0 KHz
Compression mode : Lossy
Delay relative to video : 12ms
Stream size : 165 MiB (2%)
Language : English
Language, more info : Clean effects
Buy Premium Account To Get Resumable Support & Max Speed

DOWNLOAD LINK


Links are Interchangeable - Single Extraction - Premium is support resumable
Direct Download

Tags: Fergie, Lisboa

Comments
Name:*
E-Mail:*
Add Comments:
Enter Code: *