Download Now

http://ultraimg.com/images/2016/06/24/TlMov1466780666362.jpg

Louie Bellson - Cool, Cool Blue (1983) {1994 OJC}
EAC Rip | FLAC with CUE and log | scans | 293 mb
MP3 CBR 320kbps | RAR | 117 mb
Genre: jazz

Cool, Cool Blue is the 1983 album by drummer Louie Bellson. Originally released by the Pablo label, this was released in 1994 by Original Jazz Classics/Fantasy Jazz and was remastered by Phil De Lancie.
This Pablo set (reissued on CD) was a change of pace from drummer Louie Bellson's many big-band dates of the period. He performs "Wanderlust" in a trio with pianist Frank Strazzeri and bassist George Duvivier (who wrote the song); features tenor saxophonist Ted Nash (one of his main discoveries) on four quartet tunes; and has Matt Catingub make the group a quintet on three numbers, taking one song apiece on alto, tenor and soprano. Several of the pieces - either group originals or obscurities - are blues-based; a few are more complex, and all of them swing in a spirited fashion, as one would expect from a Louie Bellson date. Good modern mainstream music.


http://ultraimg.com/images/2016/06/24/MEK4O2Co1466780671244.jpg

1. Tapooze Don
2. If We Were In Love
3. Wanderlust
4. The Boss
5. Smedley
6. Cool, Cool Blue
7. Long Ago
8. The Third Eye

--
Louie Bellson-drums
Frank Strazzeri-piano
George Duvivier-bass
Ted Nash-saxophone
Matt Catingub-saxophone

Produced by Alan Freeman
Executive producer: Peter Brightman
Recorded at PRT Studios, London, England, November 9, 1982
Engineers: Ray Prickett, Terry Everett
Digital remastering, 1994: Phil De Lancie (Fantasy Studios, Berkeley)


http://ultraimg.com/images/2016/06/24/d76nMMp1466780673598.jpg


EAC Log


EAC extraction logfile from 12. May 2007, 13:19 for CD
Louie Bellson / Cool, Cool Blue

Used drive : LITE-ON DVDRW SOHW-1633S Adapter: 0 ID: 0
Read mode : Secure with NO C2, accurate stream, disable cache
Read offset correction : 12
Overread into Lead-In and Lead-Out : No

Used output format : Internal WAV Routines
44.100 Hz; 16 Bit; Stereo

Other options :
Fill up missing offset samples with silence : Yes
Delete leading and trailing silent blocks : No
Installed external ASPI interface

Track 1
Filename D:\FLAC\Louie Bellson - Cool, Cool Blue (1983) [FLAC] {1994 OJC}\01 - Tapooze Don.wav

Pre-gap length 0:00:02.00

Peak level 100.0 %
Track quality 100.0 %
Test CRC 35F62D12
Copy CRC 35F62D12
Copy OK

Track 2
Filename D:\FLAC\Louie Bellson - Cool, Cool Blue (1983) [FLAC] {1994 OJC}\02 - If We Were In Love.wav

Pre-gap length 0:00:02.69

Peak level 100.0 %
Track quality 100.0 %
Test CRC 5283A2AF
Copy CRC 5283A2AF
Copy OK

Track 3
Filename D:\FLAC\Louie Bellson - Cool, Cool Blue (1983) [FLAC] {1994 OJC}\03 - Wanderlust.wav

Pre-gap length 0:00:07.57

Peak level 75.6 %
Track quality 100.0 %
Test CRC 40B2F293
Copy CRC 40B2F293
Copy OK

Track 4
Filename D:\FLAC\Louie Bellson - Cool, Cool Blue (1983) [FLAC] {1994 OJC}\04 - The Boss.wav

Pre-gap length 0:00:05.73

Peak level 100.0 %
Track quality 99.9 %
Test CRC 5F891268
Copy CRC 5F891268
Copy OK

Track 5
Filename D:\FLAC\Louie Bellson - Cool, Cool Blue (1983) [FLAC] {1994 OJC}\05 - Smedley.wav

Pre-gap length 0:00:01.86

Peak level 100.0 %
Track quality 100.0 %
Test CRC 00019DCF
Copy CRC 00019DCF
Copy OK

Track 6
Filename D:\FLAC\Louie Bellson - Cool, Cool Blue (1983) [FLAC] {1994 OJC}\06 - Cool, Cool Blue.wav

Pre-gap length 0:00:01.50

Peak level 100.0 %
Track quality 100.0 %
Test CRC 7232C39D
Copy CRC 7232C39D
Copy OK

Track 7
Filename D:\FLAC\Louie Bellson - Cool, Cool Blue (1983) [FLAC] {1994 OJC}\07 - Long Ago.wav

Pre-gap length 0:00:01.22

Peak level 100.0 %
Track quality 100.0 %
Test CRC 2164D7CA
Copy CRC 2164D7CA
Copy OK

Track 8
Filename D:\FLAC\Louie Bellson - Cool, Cool Blue (1983) [FLAC] {1994 OJC}\08 - The Third Eye.wav

Pre-gap length 0:00:02.06

Peak level 100.0 %
Track quality 100.0 %
Test CRC DDDAC3AC
Copy CRC DDDAC3AC
Copy OK

No errors occured

End of status report
Download link:



Links are Interchangeable - No Password - Single Extraction
Direct Download

Tags: Bellson

Comments
Name:*
E-Mail:*
Add Comments:
Enter Code: *