Download Now

http://ultraimg.com/images/nWrJPZl1466137401989.jpg

Pt. Rajendra Prasanna - Enchanting Of Himalaya (1995)
EAC Rip | FLAC with CUE and log | scans | 255 mb
MP3 CBR 320kbps | RAR | 155 mb
Genre: Indian classical, world

Enchanting Of Himalaya is the 1995 CD by Pandit Rajendra Prasanna, considered to be one of the most beautiful players of the flute. This was released in 1995, featuring two lengthy ragas, and a 7 minute dhun.
http://ultraimg.com/images/JWYe7LuW1466137403499.jpg

1. Raag Maarwa (30:46)
2. Raag Yaman (22:42)
3. Dhun - Himalaya (7:21)


http://ultraimg.com/images/oRq0UiP1466137404952.jpg


EAC Log


Exact Audio Copy V1.1 from 23. June 2015

EAC extraction logfile from 7. June 2016, 6:24

Pt. Rajendra Prasanna / Enchanting Of Himalaya

Used drive : TEAC DVD-ROM DV-28SW Adapter: 1 ID: 0

Read mode : Secure
Utilize accurate stream : Yes
Defeat audio cache : Yes
Make use of C2 pointers : No

Read offset correction : 6
Overread into Lead-In and Lead-Out : No
Fill up missing offset samples with silence : Yes
Delete leading and trailing silent blocks : No
Null samples used in CRC calculations : Yes
Used interface : Native Win32 interface for Win NT & 2000
Gap handling : Left out

Used output format : Internal WAV Routines
Sample format : 44.100 Hz; 16 Bit; Stereo

TOC of the extracted CD

Track | Start | Length | Start sector | End sector
-----------------------------
1 | 0:00.00 | 30:45.42 | 0 | 138416
2 | 30:45.42 | 22:42.05 | 138417 | 240571
3 | 53:27.47 | 7:21.10 | 240572 | 273656

Track 1

Filename C:\My Documents\My FLAC\Pt. Rajendra Prasanna - Enchanting Of Himalaya (1995) [FLAC]\01 - Raag Maarwa.wav

Pre-gap length 0:00:02.00

Peak level 75.9 %
Extraction speed 4.0 X
Track quality 99.9 %
Test CRC 5DD0DF7B
Copy CRC 5DD0DF7B
Track not fully ripped for AccurateRip lookup
Copy OK

Track 2

Filename C:\My Documents\My FLAC\Pt. Rajendra Prasanna - Enchanting Of Himalaya (1995) [FLAC]\02 - Raag Yaman.wav

Pre-gap length 0:00:03.00

Peak level 76.8 %
Extraction speed 5.6 X
Track quality 100.0 %
Test CRC 2EC08D5D
Copy CRC 2EC08D5D
Track not fully ripped for AccurateRip lookup
Copy OK

Track 3

Filename C:\My Documents\My FLAC\Pt. Rajendra Prasanna - Enchanting Of Himalaya (1995) [FLAC]\03 - Dhun - Himalaya.wav

Pre-gap length 0:00:03.00

Peak level 99.4 %
Extraction speed 5.7 X
Track quality 100.0 %
Test CRC E9E1EF73
Copy CRC E9E1EF73
Accurately ripped (confidence 1) [C9590D11] (AR v2)
Copy OK

1 track(s) accurately ripped
2 track(s) not fully ripped for AccurateRip lookup

Some tracks could not be verified as accurate

No errors occurred

End of status report

==== Log checksum 896A23127E7453B46036E1E6B93D8DA7A74B336A1CC7D82FE6BCCE5C57194DEA ====
Download link:



Links are Interchangeable - No Password - Single Extraction
Direct Download

Tags: Rajendra, Prasanna, Enchanting, Himalaya

Comments
Name:*
E-Mail:*
Add Comments:
Enter Code: *