Download Now

http://ultraimg.com/images/CharCin31465573458326.jpg

The Wilde Flowers - The Wilde Flowers (1994)
Rock | 1cd | EAC Rip | Wv + Cue + Log | covers
Voiceprint, VP123CD | rel: 1994 | 385Mb

This is an interesting listen. Although this is the beginning of the Canterbury scene it is not the place to begin to explore that subgenre. This is simply the stomping ground for the who's who of that scene that would go on to produce the awesomeness of Soft Machine and Caravan.
Despite the negative reviews that depict this as naive British pop, I have to say that it's not bad for what it is. I actually like pop music and I really like the British pop of the 60s. It's not even close to the standards of the greats of the era but there is certainly some decent pop tunes to be had here.
Although The Wilde Flowers never actually recorded an album we get to hear this historic gem as an archival artefact. Not exactly a masterpiece it is however an essential listen for those who like to hear how the evolution of certain sounds took place although there is little if any sounds of what is to come from any of these guys.
Thankfully Hugh Hopper, Robert Wyatt and Kevin Ayers would go on to form Soft Machine. And the same for the fact that Richard Sinclair, David Sinclair, Pye Hastings and Richard Coughlan would go on to form Caravan. An intriguing listen but don't feel like you're missing out if you skip it. ~Progarchives

Track listing
01. Impotence (2:09)
02. Those Words They Say (2:39)
03. Memories (1:35)
04. Don't Try To Change Me (2:26)
05. Parchman Farm (2:17)
06. Almost Grown (2:49)
07. She's Gone (2:13)
08. Slow Walkin' Talk (2:26)
09. He's Bad For You (2:48)
10. It's What I Feel (A Certain Kind) (2:18)
11. Memories (Instrumental) (2:08)
12. Never Leave Me (2:35)
13. Time After Time (2:44)
14. Just Where I Want (2:09)
15. No Game When You Loose (2:53)
16. Impotence (1:16)
17. Why Do You Care (Zobe) (3:13)
18. The Pieman Cometh (Zobe) (3:15)
19. Summer Spirit (Zobe) (3:27)
20. She Loves To Hurt (3:12)
21. The Big Show (4:11)
22. Memories (3:03)

Personnel
- Robert Wyatt / lead (1-3,9,12-16,21-22) & backing vocals, drums, percussion, tambourine
- Graham Flight / lead vocals (4,8,9)
- Kevin Ayers / lead (5,7) & backing vocals
- Brian Hopper / lead (2-16,21) & acoustic (17) guitars, alto (5,9), soprano (17,21) & tenor (18) saxes, flute (19), lead (6) & backing vocals
- Richard Sinclair / rhythm guitar (4,5,7-11), lead vocals (10)
- Pye Hastings / guitar (1), lead vocals & 12-string guitar (20)
- Mike Ratledge / flute (21), piano & organ (2)
- Hugh Hopper / bass (1-16,20-22), acoustic guitar (22)
- Richard Coughlan / drums (2,3,12-16)
Zobe Line-up (17-19):
- Dave Lawrence / lead vocals & bass (17-19)
- John Larner / guitar & backing vocals (17-19)
- Bob Gilleson / drums (17-19)
- Brian Hopper

eac log:



Exact Audio Copy V1.0 beta 3 from 29. August 2011

EAC extraction logfile from 21. November 2012, 9:45

The Wilde Flowers / Tales of Canterbury: The Wilde Flowers Story

Used drive : HL-DT-STBDDVDRW GBC-H20N Adapter: 1 ID: 0

Read mode : Secure
Utilize accurate stream : Yes
Defeat audio cache : Yes
Make use of C2 pointers : No

Read offset correction : 667
Overread into Lead-In and Lead-Out : No
Fill up missing offset samples with silence : Yes
Delete leading and trailing silent blocks : No
Null samples used in CRC calculations : Yes
Used interface : Native Win32 interface for Win NT & 2000

Used output format : User Defined Encoder
Selected bitrate : 1024 kBit/s
Quality : High
Add ID3 tag : No
Command line compressor : C:\Program Files\Exact Audio Copy\wavpack.exe
Additional command line options : -hm %source% %dest%

TOC of the extracted CD

Track | Start | Length | Start sector | End sector
-----------------------------
1 | 0:00.30 | 2:09.66 | 30 | 9770
2 | 2:10.21 | 2:39.69 | 9771 | 21764
3 | 4:50.15 | 1:35.15 | 21765 | 28904
4 | 6:25.30 | 2:26.28 | 28905 | 39882
5 | 8:51.58 | 2:17.28 | 39883 | 50185
6 | 11:09.11 | 2:49.70 | 50186 | 62930
7 | 13:59.06 | 2:13.01 | 62931 | 72906
8 | 16:12.07 | 2:26.39 | 72907 | 83895
9 | 18:38.46 | 2:48.70 | 83896 | 96565
10 | 21:27.41 | 2:18.60 | 96566 | 106975
11 | 23:46.26 | 2:08.33 | 106976 | 116608
12 | 25:54.59 | 2:35.66 | 116609 | 128299
13 | 28:30.50 | 2:44.59 | 128300 | 140658
14 | 31:15.34 | 2:09.49 | 140659 | 150382
15 | 33:25.08 | 2:53.06 | 150383 | 163363
16 | 36:18.14 | 1:16.13 | 163364 | 169076
17 | 37:34.27 | 3:13.11 | 169077 | 183562
18 | 40:47.38 | 3:15.34 | 183563 | 198221
19 | 44:02.72 | 3:27.15 | 198222 | 213761
20 | 47:30.12 | 3:12.00 | 213762 | 228161
21 | 50:42.12 | 4:11.71 | 228162 | 247057
22 | 54:54.08 | 3:03.66 | 247058 | 260848

Range status and errors

Selected range

Filename C:\Users\ProgDog\Music\ZALIVKI\Canterbury Scene\Wild Flowers\The Wilde Flowers - Tales of Canterbury- The Wilde Flowers Story.wav

Peak level 99.4 %
Extraction speed 6.4 X
Range quality 100.0 %
Test CRC CBDF427A
Copy CRC CBDF427A
Copy OK

No errors occurred


AccurateRip summary

Track 1 cannot be verified as accurate (confidence 5) [59BFB1FA], AccurateRip returned 16F91CA (AR v2)
Track 2 cannot be verified as accurate (confidence 5) [4461DA0A], AccurateRip returned [FFC1F882] (AR v2)
Track 3 cannot be verified as accurate (confidence 5) [0DE1E57A], AccurateRip returned [CE292702] (AR v2)
Track 4 cannot be verified as accurate (confidence 5) [43FF23EE], AccurateRip returned [A8040C4E] (AR v2)
Track 5 cannot be verified as accurate (confidence 5) [F5B7C7E1], AccurateRip returned [7B5BE7DC] (AR v2)
Track 6 cannot be verified as accurate (confidence 5) [FE54B4BF], AccurateRip returned [16CBBB15] (AR v2)
Track 7 cannot be verified as accurate (confidence 5) [93D84E8E], AccurateRip returned [693CA41E] (AR v2)
Track 8 cannot be verified as accurate (confidence 5) [79FD4168], AccurateRip returned [7B367FA4] (AR v2)
Track 9 cannot be verified as accurate (confidence 5) [87827244], AccurateRip returned [9DD28D02] (AR v2)
Track 10 cannot be verified as accurate (confidence 5) [04238642], AccurateRip returned [D8BEECE8] (AR v2)
Track 11 cannot be verified as accurate (confidence 5) [5F286CCD], AccurateRip returned [8A4BD27B] (AR v2)
Track 12 cannot be verified as accurate (confidence 5) [207C70B4], AccurateRip returned [636C5D85] (AR v2)
Track 13 cannot be verified as accurate (confidence 5) [3F1FC609], AccurateRip returned [D2E22D3D] (AR v2)
Track 14 cannot be verified as accurate (confidence 5) [5B5CF270], AccurateRip returned [A5053190] (AR v2)
Track 15 cannot be verified as accurate (confidence 5) [E13DA9DB], AccurateRip returned [C8DAF670] (AR v2)
Track 16 cannot be verified as accurate (confidence 5) [88DE9A8A], AccurateRip returned [018BF649] (AR v2)
Track 17 cannot be verified as accurate (confidence 5) [17C99556], AccurateRip returned [9E7E7282] (AR v2)
Track 18 cannot be verified as accurate (confidence 5) [15284CEA], AccurateRip returned [D0F8EB03] (AR v2)
Track 19 cannot be verified as accurate (confidence 5) [DF81D6D3], AccurateRip returned [7995B8D6] (AR v2)
Track 20 cannot be verified as accurate (confidence 4) [C83B336D], AccurateRip returned [451539ED] (AR v2)
Track 21 cannot be verified as accurate (confidence 5) [58FDCFDC], AccurateRip returned [ADCDAE1A] (AR v2)
Track 22 cannot be verified as accurate (confidence 3) [8CB3BC78], AccurateRip returned [8D8F60A1] (AR v2)

No tracks could be verified as accurate
You may have a different pressing from the one(s) in the database

End of status report

-- CUETools DB Plugin V2.1.3

[CTDB TOCID: 14Dg5jZha8MQJPlIXGXv7ZyZuiI-] found, Submit result: discs with pregaps not supported in this protocol version
0030c45 (5/5) Differs in 0 samples @
You can use CUETools to repair this rip.

==== Log checksum 58CDED3E89793D1E69DD8E1CAF628FD8ECEDCFAA8AAA3A715FBCC3E67B919F04 ====



cuetools report:



[CUETools log; Date: 2016. 06. 08. 21:25:57; Version: 2.1.6]
Pregap length 00:00:30.
[CTDB TOCID: 14Dg5jZha8MQJPlIXGXv7ZyZuiI-] found.
Track | CTDB Status
1 | (5/5) Accurately ripped
2 | (5/5) Accurately ripped
3 | (5/5) Accurately ripped
4 | (5/5) Accurately ripped
5 | (5/5) Accurately ripped
6 | (5/5) Accurately ripped
7 | (5/5) Accurately ripped
8 | (5/5) Accurately ripped
9 | (5/5) Accurately ripped
10 | (5/5) Accurately ripped
11 | (5/5) Accurately ripped
12 | (5/5) Accurately ripped
13 | (5/5) Accurately ripped
14 | (5/5) Accurately ripped
15 | (5/5) Accurately ripped
16 | (5/5) Accurately ripped
17 | (5/5) Accurately ripped
18 | (5/5) Accurately ripped
19 | (4/5) Accurately ripped
20 | (4/5) Accurately ripped
21 | (4/5) Accurately ripped
22 | (4/5) Accurately ripped
[AccurateRip ID: 002a5340-02ae4118-320d9516] found.
Track [ CRC | V2 ] Status
01 [85ecb29c|59bfb1fa] (00+00/14) No match
02 [328c873c|4461da0a] (00+00/14) No match
03 18744fa|0de1e57a (00+00/14) No match
04 [e4c712c0|43ff23ee] (00+00/14) No match
05 [67014f9e|f5b7c7e1] (00+00/14) No match
06 [f7aae349|fe54b4bf] (00+00/14) No match
07 [d1af5b5a|93d84e8e] (00+00/14) No match
08 [727c0158|79fd4168] (00+00/14) No match
09 [7c9a9570|87827244] (00+00/14) No match
10 [7981fd1a|04238642] (00+00/14) No match
11 [9bcb07e7|5f286ccd] (00+00/14) No match
12 [c4e18739|207c70b4] (00+00/14) No match
13 [0b1c4de5|3f1fc609] (00+00/14) No match
14 [1a03d3f4|5b5cf270] (00+00/14) No match
15 [16abe864|e13da9db] (00+00/14) No match
16 [67b6c19b|88de9a8a] (00+00/14) No match
17 [29566d34|17c99556] (00+00/14) No match
18 35d6501|15284cea (00+00/14) No match
19 [a6e115fc|df81d6d3] (00+00/14) No match
20 [f416189b|c83b336d] (00+00/13) No match
21 [8687725c|58fdcfdc] (00+00/14) No match
22 [70db3347|8cb3bc78] (00+00/12) No match
Offsetted by 98:
01 [ccadf786] (02/14) Accurately ripped
02 [6dfc1dee] (02/14) Accurately ripped
03 [f9188992] (02/14) Accurately ripped
04 [8199b4ca] (02/14) Accurately ripped
05 [67a30cb8] (02/14) Accurately ripped
06 [d67df46d] (02/14) Accurately ripped
07 [63ac90e6] (02/14) Accurately ripped
08 [c62ccdfc] (02/14) Accurately ripped
09 [561190c6] (02/14) Accurately ripped
10 70655e4 (02/14) Accurately ripped
11 [7f566be3] (02/14) Accurately ripped
12 [84f2dbdd] (02/14) Accurately ripped
13 [8c560b6d] (02/14) Accurately ripped
14 [9fbb5f88] (02/14) Accurately ripped
15 [d8af7048] (02/14) Accurately ripped
16 [821eff05] (02/14) Accurately ripped
17 [54a7fe7e] (02/14) Accurately ripped
18 [152856a7] (02/14) Accurately ripped
19 [3863f5aa] (02/14) Accurately ripped
20 2dabd31 (02/13) Accurately ripped
21 [c65d71f6] (02/14) Accurately ripped
22 [3052ba75] (02/12) Accurately ripped
Offsetted by 726:
01 16f91ca (05/14) Accurately ripped
02 [ffc1f882] (05/14) Accurately ripped
03 [ce292702] (05/14) Accurately ripped
04 [a8040c4e] (05/14) Accurately ripped
05 [7b5be7dc] (05/14) Accurately ripped
06 [16cbbb15] (05/14) Accurately ripped
07 [693ca41e] (05/14) Accurately ripped
08 [7b367fa4] (05/14) Accurately ripped
09 [9dd28d02] (05/14) Accurately ripped
10 [d8beece8] (05/14) Accurately ripped
11 [8a4bd27b] (05/14) Accurately ripped
12 [636c5d85] (05/14) Accurately ripped
13 [d2e22d3d] (05/14) Accurately ripped
14 [a5053190] (05/14) Accurately ripped
15 [c8daf670] (05/14) Accurately ripped
16 [018bf649] (05/14) Accurately ripped
17 [9e7e7282] (05/14) Accurately ripped
18 [d0f8eb03] (05/14) Accurately ripped
19 [7995b8d6] (05/14) Accurately ripped
20 [451539ed] (04/13) Accurately ripped
21 [adcdae1a] (05/14) Accurately ripped
22 [8d8f60a1] (03/12) Accurately ripped

Track Peak [ CRC32 ] [W/O NULL] [ LOG ]
- 99,4 [CBDF427A] [69850DF7] CRC32
01 88,0 5F22393 [77E709EC]
02 78,9 [4F9725E8] [8FA4C91C]
03 92,4 2EC233A 1D2456B
04 94,6 [E1DD812B] 5A7C085
05 74,5 [57E4DA83] [E4C4E23D]
06 85,9 [2D39CB5C] [C451A830]
07 83,9 FCC76E5 [5EAB315E]
08 81,9 [8B94619F] [66E875DD]
09 80,6 [FB5A7517] [254BE9EE]
10 83,4 [D51355EE] [7CC57A66]
11 99,4 [21CEF192] [F93B1C81]
12 79,4 [7436295B] [70E848FE]
13 67,2 [404C3199] [1B6BA702]
14 73,9 [C925AB59] [937E252B]
15 74,1 [E865502B] [8B024AB7]
16 75,4 [3F373CA1] [7A78D736]
17 85,0 [7BDF12F3] [CD3420CA]
18 85,2 [DA5EC047] [4780B80D]
19 77,8 [5288FB0A] [F7D6D4B5]
20 78,5 [2C787E48] [8157D1DA]
21 87,7 [4F3A3DC5] [A48847AF]
22 79,6 [52F48A5A] [4B4CEB9A]



Thx to ProgDog





password: asd

Download link:



Links are Interchangeable - No Password - Single Extraction
Direct Download

Tags: Flowers, Flowers

Comments
Name:*
E-Mail:*
Add Comments:
Enter Code: *