Download Now

http://ultraimg.com/images/G6C3uEd1465529455089.jpg

Jacob Fred Jazz Odyssey - One Day In Brooklyn (2009)
EAC Rip | FLAC with CUE and log | scans | 240 mb
MP3 CBR 320kbps | RAR | 115 mb
Genre: jazz

One Day In Brooklyn is the 2009 album by Jacob Fred Jazz Odyssey. It features only six songs and while some call it an EP, it is a full length effort.
http://ultraimg.com/images/InrWxXW1465529456530.jpg

1. The Black & Crazy Blues/A Laugh For Rory (For Joel Dorn)
2. Country Girl
3. Julia
4. Imam
5. Drethoven
6. Four In One

Brian Hass-piano
Josh Raymer-drums
Chris Combs-lap steel
Matt Hayes-double bass

Engineered by Andrew Felluss & Christian Castagno
Produced by Jared Tyler & JFJO
Mixed by Jared Tyler & JFJO
Mastered by Chuck Zwicky
Executive Producer: Brian Haas

Recorded by Andrew Felluss & Chris Castagno
Live at 58N6 Media Labs in Brooklyn, NY on 17 April, 2009


http://ultraimg.com/images/xtREGCxa1465529457970.jpg


EAC Log


Exact Audio Copy V1.1 from 23. June 2015

EAC extraction logfile from 31. May 2016, 21:04

Jacob Fred Jazz Odyssey / One Day In Brooklyn

Used drive : TEAC DVD-ROM DV-28SW Adapter: 1 ID: 0

Read mode : Secure
Utilize accurate stream : Yes
Defeat audio cache : Yes
Make use of C2 pointers : No

Read offset correction : 6
Overread into Lead-In and Lead-Out : No
Fill up missing offset samples with silence : Yes
Delete leading and trailing silent blocks : No
Null samples used in CRC calculations : Yes
Used interface : Native Win32 interface for Win NT & 2000
Gap handling : Left out

Used output format : Internal WAV Routines
Sample format : 44.100 Hz; 16 Bit; Stereo

TOC of the extracted CD

Track | Start | Length | Start sector | End sector
-----------------------------
1 | 0:00.00 | 6:36.38 | 0 | 29737
2 | 6:36.38 | 5:15.36 | 29738 | 53398
3 | 11:51.74 | 6:56.66 | 53399 | 84664
4 | 18:48.65 | 5:12.11 | 84665 | 108075
5 | 24:01.01 | 7:06.07 | 108076 | 140032
6 | 31:07.08 | 3:59.19 | 140033 | 157976

Track 1

Filename C:\My Documents\My FLAC\Jacob Fred Jazz Odyssey - One Day In Brooklyn (2009) [FLAC]\01 - The Black & Crazy Blues, A Laugh For Rory (For Joel Dorn).wav

Pre-gap length 0:00:02.00

Peak level 92.2 %
Extraction speed 2.7 X
Track quality 100.0 %
Test CRC A22A484C
Copy CRC A22A484C
Track not fully ripped for AccurateRip lookup
Copy OK

Track 2

Filename C:\My Documents\My FLAC\Jacob Fred Jazz Odyssey - One Day In Brooklyn (2009) [FLAC]\02 - Country Girl.wav

Pre-gap length 0:00:01.30

Peak level 92.2 %
Extraction speed 3.4 X
Track quality 100.0 %
Test CRC 8D7C0975
Copy CRC 8D7C0975
Track not fully ripped for AccurateRip lookup
Copy OK

Track 3

Filename C:\My Documents\My FLAC\Jacob Fred Jazz Odyssey - One Day In Brooklyn (2009) [FLAC]\03 - Julia.wav

Pre-gap length 0:00:02.10

Peak level 92.2 %
Extraction speed 3.9 X
Track quality 100.0 %
Test CRC 4C59AC63
Copy CRC 4C59AC63
Track not fully ripped for AccurateRip lookup
Copy OK

Track 4

Filename C:\My Documents\My FLAC\Jacob Fred Jazz Odyssey - One Day In Brooklyn (2009) [FLAC]\04 - Imam.wav

Pre-gap length 0:00:00.62

Peak level 92.2 %
Extraction speed 4.1 X
Track quality 100.0 %
Test CRC 55A2AFD4
Copy CRC 55A2AFD4
Track not fully ripped for AccurateRip lookup
Copy OK

Track 5

Filename C:\My Documents\My FLAC\Jacob Fred Jazz Odyssey - One Day In Brooklyn (2009) [FLAC]\05 - Drethoven.wav

Pre-gap length 0:00:01.64

Peak level 92.2 %
Extraction speed 3.9 X
Track quality 100.0 %
Test CRC 7AB8DD76
Copy CRC 7AB8DD76
Track not fully ripped for AccurateRip lookup
Copy OK

Track 6

Filename C:\My Documents\My FLAC\Jacob Fred Jazz Odyssey - One Day In Brooklyn (2009) [FLAC]\06 - Four In One.wav

Pre-gap length 0:00:01.67

Peak level 83.5 %
Extraction speed 4.5 X
Track quality 100.0 %
Test CRC 5AE4680C
Copy CRC 5AE4680C
Accurately ripped (confidence 2) [62C3F616] (AR v2)
Copy OK

1 track(s) accurately ripped
5 track(s) not fully ripped for AccurateRip lookup

Some tracks could not be verified as accurate

No errors occurred

End of status report

==== Log checksum 3540B69A6A5861D2D4CB07ECF8467B87EDE42BF5ADADA6350780780D45C868BB ====
Download link:



Links are Interchangeable - No Password - Single Extraction
Direct Download

Tags: Odyssey, Brooklyn

Comments
Name:*
E-Mail:*
Add Comments:
Enter Code: *