Download Now

http://ultraimg.com/images/8uy6c1464966474187.jpg

Elmer Bernstein - The Miracle (1959)
Original Motion Picture Soundtrack, 2CD Limited Edition 2013

EAC | FLAC (Image) + cue.+log ~ 307 Mb | Mp3, CBR320 kbps ~ 228 Mb | Scans ~ 77 Mb
Soundtrack, Score | Label: Intrada | # ISC 243 | 01:34:49

Years in the making! Elmer Bernstein fans place such high esteem on epic 1959 score that composer starts club in 1974, makes highlights from The Miracle the first of his own music to re-record. 26 minutes make it to second LP on his private label, but incredible wealth of powerhouse music including massive choral segments, battle music, entire Spanish elements of score remain unrecorded... until now! Over 90 minutes of actual soundtrack music spread over 2 CDs! Large-scale picture from Warner Bros. directed by Irving Rapper, starring Carroll Baker, Roger Moore is set during vibrant era of Napoleonic Wars in 1812. Religious story sees young postulant leaving convent to pursue love, adventure. As Teresa embarks on worldly adventures, statue of Virgin Mary assumes her place until she returns. Tale of faith, love, war and tragedy all inspire Bernstein to create lengthy, ambitious score in vein of legendary Ten Commandments score for Cecil B. DeMille. Massive chords launch work from outset, spotlighting great power of Church, faith.

Tracklist:

CD1:

01. Main Title (02:21)
02. At First Sight (02:36)
03. Aftermath (01:30)
04. Infirmary (03:05)
05. Un Momento (02:48)
06. Convalescence (01:53)
07. Stolen Fruit (01:37)
08. Departure / Decision / Flight / French Attack (12:10)
09. Musical Watch / Death News (01:14)
10. Christian Gypsy / Proposal (02:42)
11. A Woman For Carlitos / Michael's Return (00:50)
12. Betrayal / Guido Dead (04:41)

CD2:

01. Madrid (02:20)
02. With Your Permission / The Painting (01:04)
03. Casimir Exits (01:01)
04. Teresa And Cordoba (01:55)
05. Hail The Matador / The Bull (00:54)
06. Cordoba's Death (01:59)
07. La Morena Gitana (01:00)
08. Reunion (03:16)
09. Toast To Victory / Waltz (03:32)
10. Forgotten Vows (03:21)
11. Bugles / Action (01:13)
12. Waterloo / Teresa Departs / The Journey / Arrival At Convent / Madonna Returns (11:36)
13. Gratitude (00:56)
14. Ave Verum Corpus / End Title (02:53)

The Extras:

15. French Attack (Alternate) (03:13)
16. A Woman For Carlitos / Michael's Return (Film Version, No Vocal) (00:49)
17. Gratitude (Alternate) (00:59)
18. Oh Maria, Madre Mia (03:07)
19. Salve Virgen Pura (02:30)
20. British Grenadiers (00:59)
21. Auld Lang Syne (01:11)
22. La Boca De Pepita (02:05)
23. Cancion De Maja (02:11)
24. Muineira (00:52)
25. Adoramus Te (02:07)


EAC log CD1


Exact Audio Copy V1.0 beta 3 from 29. August 2011

EAC extraction logfile from 23. October 2013, 21:02

Elmer Bernstein / The Miracle (Disc 1)

Used drive : TSSTcorpCDDVDW SH-S202H Adapter: 0 ID: 0

Read mode : Secure
Utilize accurate stream : Yes
Defeat audio cache : Yes
Make use of C2 pointers : No

Read offset correction : 6
Overread into Lead-In and Lead-Out : No
Fill up missing offset samples with silence : Yes
Delete leading and trailing silent blocks : No
Null samples used in CRC calculations : Yes
Used interface : Native Win32 interface for Win NT & 2000

Used output format : Internal WAV Routines
Sample format : 44.100 Hz; 16 Bit; Stereo

TOC of the extracted CD

Track | Start | Length | Start sector | End sector
-----------------------------
1 | 0:00.00 | 2:21.52 | 0 | 10626
2 | 2:21.52 | 2:36.14 | 10627 | 22340
3 | 4:57.66 | 1:30.49 | 22341 | 29139
4 | 6:28.40 | 3:05.07 | 29140 | 43021
5 | 9:33.47 | 2:48.49 | 43022 | 55670
6 | 12:22.21 | 1:53.58 | 55671 | 64203
7 | 14:16.04 | 1:37.36 | 64204 | 71514
8 | 15:53.40 | 12:10.49 | 71515 | 126313
9 | 28:04.14 | 1:14.68 | 126314 | 131931
10 | 29:19.07 | 2:42.02 | 131932 | 144083
11 | 32:01.09 | 0:50.24 | 144084 | 147857
12 | 32:51.33 | 4:41.42 | 147858 | 168974

Range status and errors

Selected range

Filename D:\Elmer Bernstein - The Miracle\Elmer Bernstein - The Miracle (Disc 1).wav

Peak level 98.8 %
Extraction speed 2.8 X
Range quality 100.0 %
Test CRC 3E97E61F
Copy CRC 3E97E61F
Copy OK

No errors occurred


AccurateRip summary

Track 1 not present in database
Track 2 not present in database
Track 3 not present in database
Track 4 not present in database
Track 5 not present in database
Track 6 not present in database
Track 7 not present in database
Track 8 not present in database
Track 9 not present in database
Track 10 not present in database
Track 11 not present in database
Track 12 not present in database

None of the tracks are present in the AccurateRip database

End of status report

==== Log checksum F0C2EE82CBF46E3A65766642719870B656E20098C060DFADD075EE4A1B4CBE88 ====

DR log CD1


foobar2000 1.2 / Dynamic Range Meter 1.1.1
log date: 2016-06-03 00:12:00

----------------------------------------
Analyzed: Elmer Bernstein / The Miracle (Disc 1)
----------------------------------------

DR Peak RMS Duration Track
----------------------------------------
DR9 -0.10 dB -11.35 dB 2:22 01-Main Title
DR10 -0.10 dB -13.52 dB 2:36 02-At First Sight
DR11 -0.10 dB -15.17 dB 1:31 03-Aftermath
DR10 -1.10 dB -16.23 dB 3:05 04-Infirmary
DR11 -1.14 dB -15.52 dB 2:49 05-Un Momento
DR11 -0.46 dB -14.65 dB 1:54 06-Convalescence
DR10 -0.10 dB -13.28 dB 1:37 07-Stolen Fruit
DR10 -0.10 dB -12.20 dB 12:11 08-Departure / Decision / Flight / French Attack
DR10 -1.50 dB -16.62 dB 1:15 09-Musical Watch / Death News
DR9 -0.10 dB -12.16 dB 2:42 10-Christian Gypsy / Proposal
DR10 -0.10 dB -14.14 dB 0:50 11-A Woman For Carlitos / Michael's Return
DR11 -0.10 dB -13.82 dB 4:42 12-Betrayal / Guido Dead
----------------------------------------

Number of tracks: 12
Official DR value: DR10

Samplerate: 44100 Hz
Channels: 2
Bits per sample: 16
Bitrate: 440 kbps
Codec: FLAC
================================================================================

EAC log CD2


Exact Audio Copy V1.0 beta 3 from 29. August 2011

EAC extraction logfile from 23. October 2013, 21:47

Elmer Bernstein / The Miracle (Disc 2)

Used drive : TSSTcorpCDDVDW SH-S202H Adapter: 0 ID: 0

Read mode : Secure
Utilize accurate stream : Yes
Defeat audio cache : Yes
Make use of C2 pointers : No

Read offset correction : 6
Overread into Lead-In and Lead-Out : No
Fill up missing offset samples with silence : Yes
Delete leading and trailing silent blocks : No
Null samples used in CRC calculations : Yes
Used interface : Native Win32 interface for Win NT & 2000

Used output format : Internal WAV Routines
Sample format : 44.100 Hz; 16 Bit; Stereo

TOC of the extracted CD

Track | Start | Length | Start sector | End sector
-----------------------------
1 | 0:00.00 | 2:20.13 | 0 | 10512
2 | 2:20.13 | 1:04.69 | 10513 | 15381
3 | 3:25.07 | 1:01.34 | 15382 | 19990
4 | 4:26.41 | 1:55.53 | 19991 | 28668
5 | 6:22.19 | 0:54.60 | 28669 | 32778
6 | 7:17.04 | 1:59.71 | 32779 | 41774
7 | 9:17.00 | 1:00.07 | 41775 | 46281
8 | 10:17.07 | 3:16.67 | 46282 | 61048
9 | 13:33.74 | 3:32.37 | 61049 | 76985
10 | 17:06.36 | 3:21.26 | 76986 | 92086
11 | 20:27.62 | 1:13.62 | 92087 | 97623
12 | 21:41.49 | 11:36.58 | 97624 | 149881
13 | 33:18.32 | 0:56.67 | 149882 | 154148
14 | 34:15.24 | 2:53.21 | 154149 | 167144
15 | 37:08.45 | 3:13.07 | 167145 | 181626
16 | 40:21.52 | 0:49.70 | 181627 | 185371
17 | 41:11.47 | 0:59.25 | 185372 | 189821
18 | 42:10.72 | 3:07.01 | 189822 | 203847
19 | 45:17.73 | 2:30.28 | 203848 | 215125
20 | 47:48.26 | 0:59.50 | 215126 | 219600
21 | 48:48.01 | 1:11.03 | 219601 | 224928
22 | 49:59.04 | 2:05.38 | 224929 | 234341
23 | 52:04.42 | 2:11.34 | 234342 | 244200
24 | 54:16.01 | 0:52.26 | 244201 | 248126
25 | 55:08.27 | 2:07.30 | 248127 | 257681

Range status and errors

Selected range

Filename D:\Elmer Bernstein - The Miracle\Elmer Bernstein - The Miracle (Disc 2).wav

Peak level 98.8 %
Extraction speed 7.5 X
Range quality 100.0 %
Test CRC B33F6565
Copy CRC B33F6565
Copy OK

No errors occurred


AccurateRip summary

Track 1 not present in database
Track 2 not present in database
Track 3 not present in database
Track 4 not present in database
Track 5 not present in database
Track 6 not present in database
Track 7 not present in database
Track 8 not present in database
Track 9 not present in database
Track 10 not present in database
Track 11 not present in database
Track 12 not present in database
Track 13 not present in database
Track 14 not present in database
Track 15 not present in database
Track 16 not present in database
Track 17 not present in database
Track 18 not present in database
Track 19 not present in database
Track 20 not present in database
Track 21 not present in database
Track 22 not present in database
Track 23 not present in database
Track 24 not present in database
Track 25 not present in database

None of the tracks are present in the AccurateRip database

End of status report

==== Log checksum 0BB6FEF9C0D3F287514E222D7CD0321D18BA0E043A173EE6F4E6E71A66A70339 ====

DR log CD2


foobar2000 1.2 / Dynamic Range Meter 1.1.1
log date: 2016-06-03 00:12:14

----------------------------------------
Analyzed: Elmer Bernstein / The Miracle (Disc 2) (1-23)
G. P. Da Palestrina / The Miracle (Disc 2) (24)
----------------------------------------

DR Peak RMS Duration Track
----------------------------------------
DR9 -0.10 dB -12.49 dB 2:20 01-Madrid
DR10 -1.05 dB -14.33 dB 1:05 02-With Your Permission / The Painting
DR8 -0.10 dB -13.46 dB 1:01 03-Casimir Exits
DR10 -0.10 dB -11.12 dB 1:56 04-Teresa And Cordoba
DR11 -0.10 dB -13.13 dB 0:55 05-Hail The Matador / The Bull
DR9 -0.10 dB -12.25 dB 2:00 06-Cordoba's Death
DR11 -0.10 dB -14.73 dB 1:00 07-La Morena Gitana
DR9 -0.10 dB -13.24 dB 3:17 08-Reunion
DR9 -0.10 dB -11.10 dB 3:32 09-Toast To Victory / Waltz
DR12 -0.86 dB -16.85 dB 3:21 10-Forgotten Vows
DR12 -0.10 dB -12.99 dB 1:14 11-Bugles / Action
DR9 -0.10 dB -13.36 dB 11:37 12-Waterloo / Teresa Departs / The Journey / Arrival At Convent / Madonna Returns
DR10 -0.23 dB -13.03 dB 0:57 13-Gratitude
DR10 -0.10 dB -11.60 dB 3:13 15-French Attack (Alternate)
DR10 -0.10 dB -14.80 dB 0:50 16-A Woman For Carlitos / Michael's Return (Film Version, No Vocal)
DR8 -0.10 dB -10.08 dB 0:59 17-Gratitude (Alternate)
DR10 -3.71 dB -15.24 dB 3:07 18-Oh Maria, Madre Mia
DR8 -3.38 dB -14.17 dB 2:30 19-Salve Virgen Pura
DR12 -0.10 dB -14.65 dB 1:00 20-British Grenadiers
DR11 -0.10 dB -13.38 dB 1:11 21-Auld Lang Syne
DR12 -0.59 dB -14.79 dB 2:06 22-La Boca De Pepita
DR11 -3.54 dB -16.45 dB 2:11 23-Cancion De Maja
DR13 -0.10 dB -14.89 dB 0:52 24-Muineira
DR11 -0.99 dB -15.98 dB 2:07 25-Adoramus Te
----------------------------------------

Number of tracks: 24
Official DR value: DR10

Samplerate: 44100 Hz
Channels: 2
Bits per sample: 16
Bitrate: 425 kbps
Codec: FLAC
================================================================================

----------------------------------------
Statistics for: 14-Ave Verum Corpus / End Title
Number of samples: 7641648
Duration: 2:53
----------------------------------------

Left Right

Peak Value: -0.10 dB -- -0.10 dB
Avg RMS: -12.35 dB -- -12.35 dB
DR channel: 9.72 dB -- 9.72 dB
----------------------------------------

Official DR Value: DR10

Samplerate: 44100 Hz
Channels: 2
Bits per sample: 16
Bitrate: 425 kbps
Codec: FLAC
================================================================================


http://ultraimg.com/images/cubrZos1464966474827.jpg


http://ultraimg.com/images/NbEXRpXn1464966475437.jpg

Pass: avaxhome

Download link:



Links are Interchangeable - No Password - Single Extraction
Direct Download

Tags: Bernstein, Miracle, Original, Motion, Picture, Soundtrack, Limited

Comments
Name:*
E-Mail:*
Add Comments:
Enter Code: *