Download Now

http://ultraimg.com/images/h53Lz3S1464779322218.jpg

Carlos Santana Presents Blues at Montreux (2009)
3xBDRip 1080p | MKV | 1920x1080p, MPEG-4 AVC, 29.97 fps, 10,2 Mbps 16:9 (High Profile 5.0)
Audio: Flac 5.1 3925 Kbps 48.0 KHz 24 bits - DTS-HD Master Audio and AC3 5.1 448 kbps 48.0 KHz 16 bits
Genre: Blues | Length: 1:10+1:11+1:36 | 24.65 GB | Nitroflare/Filefactory/Bigfile

Blues has always been an important part of Carlos Santana's music. In fact, when he started his career in San Francisco back in the early 60s, his group was known as the Santana Blues Band. In July 2004, Santana performed with three legendary bluesmen and good friends of his at the Montreux Jazz Festival - Bobby Parker, Clarence 'Gatemouth' Brown and Buddy Guy - whose individual sets are included on this Blu-ray disc.

Louisiana-native Bobby Parker's career has been fairly uneven. During the early 60s, Parker relocated to Los Angeles where he played at various clubs and eventually met blues legend Johnny Otis. Later on, he moved to New York City where he finally started getting the type of exposure he had been hoping for - back-up work for Chuck Berry, Jackie Wilson, Eta James and even Little Richard. In 1961, Parker recorded the hit single "Watch Your Step", which Santana would later on perform regularly. In the early 90s, he managed to record two albums, "Bent Out of Shape" (1993) and "Shine Me Up" (1995), for the Scott Bros and their Black Top Records.

The eleven songs Parker performed at the Montrux Jazz Festival prove that he was still at the top of his game in 2004 - "So Glad I Found You", "It's Unfair" and especially "Chill Out" with Carlos Santana are pure gold (Santana also appears on "Mellow Down Easy" and "Watch Your Step").

Clarence 'Gatemouth' Brown is another Louisiana-native guitarist who found success away from home - he began his career in Texas after attending a T-Bone Walker concert, and always described his music as "Texas style". During the years, Brown performed with such iconic musicians as Otis Rush, Louis Jordan, Ry Cooder and Eric Clapton. According to a number of different sources, he was an inspirational figure to Frank Zappa.

At the Montreux Jazz Festival, Brown performed a total of ten songs, of which "Strange Things Happen", "I've Got My Mojo Working" (with Santana and Buddy Guy) and "Okie Dokie Stomp" (with Santana and Nile Rogers) show perfectly what he was capable of. Brown is also impressive playing the violin in "Sunrise Cajun Style".

Living legend Buddy Guy, also a Louisiana-native, has influenced such musicians as Jimmi Hendrix, Jimmy Page, Eric Clapton, Jeff Beck and Mark Knopfler. Guy became successful after he relocated from Baton Rouge to Chicago in the late 50s, where he performed at a number of different blues clubs, and eventually got a record deal. During the late 60s, however, he struggled enormously, and it took more than twenty years before he returned to prominence in the late 80s (partially die to Clapton's popularization of blues).

Guy performed a total of ten songs at the Montreux Jazz Festival, including such classics as "Stormy Monday" (with Santana), "Drowning on Dry Land" and Willie Dixon's "Hoochie Coochie Man". The real jams in this set, however, are the acoustic guitar versions of Sonny Boy Williams' "Good Morning Little Schoolgirl", "Louise McGhee" and "Done Got Old".


http://ultraimg.com/images/a52qWMRd1464779322671.jpg


http://ultraimg.com/images/3oUIxOo1464779323155.jpg


http://ultraimg.com/images/i3E34m2jb1464779323624.jpg


http://ultraimg.com/images/0HuIb89d1464779324124.jpg


http://ultraimg.com/images/r5NaGb1464779324702.jpg


http://ultraimg.com/images/Z7vhXbcp1464779325296.jpg


http://ultraimg.com/images/czTGHsmc1464779325796.jpg


Tracklist

Dic 1: Bobby Parker
1. Straight Up No Chaser
2. Break It Up
3. Breaking Up Somebody's Home
4. Nothing But The Blues
5. So Glad I Found You
6. I Ain't Superstitious
7. It's Unfair
8. Going Down Slow
9. Chill Out (feat. Carlos Santana)
10. Mellow Down Easy (feat. Carlos Santana)
11. Watch Your Step (feat. Carlos Santana)

MediaInfo


General
Unique ID : 177656644966119865556769201418550167652 (0x85A76CDC4396CA7B8BFBA5A47038C864)
Complete name : C:\Users\ggu\Desktop\ggu\Carlos Santana Presents Blues at Montreux(2004)\01_Bobby_Parker_1080P_RipByCranberbI.mkv
Format : Matroska
Format version : Version 2
File size : 7.43 GiB
Duration : 1h 10mn
Overall bit rate mode : Variable
Overall bit rate : 15.0 Mbps
Encoded date : UTC 2010-08-21 11:32:56
Writing application : mkvmerge v4.2.0 ('No Talking') сборка от Jul 28 2010 18:38:23
Writing library : libebml v1.0.0 + libmatroska v1.0.0

Video
ID : 1
Format : AVC
Format/Info : Advanced Video Codec
Format profile : [email protected]
Format settings, CABAC : Yes
Format settings, ReFrames : 5 frames
Muxing mode : Header stripping
Codec ID : V_MPEG4/ISO/AVC
Duration : 1h 10mn
Nominal bit rate : 10.2 Mbps
Width : 1 920 pixels
Height : 1 080 pixels
Display aspect ratio : 16:9
Frame rate mode : Constant
Frame rate : 29.970 (30000/1001) fps
Color space : YUV
Chroma subsampling : 4:2:0
Bit depth : 8 bits
Scan type : Progressive
Bits/(Pixel*Frame) : 0.164
Title : Bobby Parker:Blues at Montreux (2004)
Writing library : x264 core 104 r1677 19df41a
Encoding settings : cabac=1 / ref=6 / deblock=1:0:0 / analyse=0x3:0x133 / me=umh / subme=8 / psy=1 / psy_rd=1.00:0.00 / mixed_ref=1 / me_range=24 / chroma_me=1 / trellis=2 / 8x8dct=1 / cqm=0 / deadzone=21,11 / fast_pskip=0 / chroma_qp_offset=-2 / threads=6 / sliced_threads=0 / nr=0 / decimate=1 / interlaced=0 / constrained_intra=0 / bframes=3 / b_pyramid=1 / b_adapt=1 / b_bias=0 / direct=3 / weightb=1 / open_gop=0 / weightp=2 / keyint=240 / keyint_min=24 / scenecut=40 / intra_refresh=0 / rc_lookahead=60 / rc=2pass / mbtree=1 / bitrate=10200 / ratetol=1.0 / qcomp=0.60 / qpmin=10 / qpmax=51 / qpstep=4 / cplxblur=20.0 / qblur=0.5 / ip_ratio=1.40 / aq=1:1.00
Language : English
Default : Yes
Forced : No

Audio #1
ID : 2
Format : FLAC
Format/Info : Free Lossless Audio Codec
Codec ID : A_FLAC
Duration : 1h 10mn
Bit rate mode : Variable
Channel(s) : 6 channels
Channel positions : Front: L C R, Side: L R, LFE
Sampling rate : 48.0 KHz
Bit depth : 24 bits
Title : DTS-HD Master Audio 5.1 2 FLAC
Writing library : libFLAC 1.2.1 (UTC 2007-09-17)
Language : English
Default : Yes
Forced : No

Audio #2
ID : 3
Format : AC-3
Format/Info : Audio Coding 3
Mode extension : CM (complete main)
Format settings, Endianness : Big
Muxing mode : Header stripping
Codec ID : A_AC3
Duration : 1h 10mn
Bit rate mode : Constant
Bit rate : 448 Kbps
Channel(s) : 6 channels
Channel positions : Front: L C R, Side: L R, LFE
Sampling rate : 48.0 KHz
Frame rate : 31.250 fps (1536 spf)
Compression mode : Lossy
Stream size : 226 MiB (3%)
Title : Dolby Digital 5.1 448
Language : English
Default : No
Forced : No

Menu
00:00:00.000 : Intro
00:00:15.100 : 1. Straight Up No Chaser
00:06:49.809 : 2. Break It Up
00:10:16.583 : 3. Breaking Up Somebody's Home
00:15:31.864 : 4. Nothing But The Blues
00:21:07.633 : 5. So Glad I Found You
00:29:54.059 : 6. I Ain't Superstitious
00:35:31.763 : 7. It's Unfair
00:41:58.116 : 8. Going Down Slow
00:49:45.182 : 9. Chill Out (feat. Carlos Santana)
00:56:52.943 : 10. Mellow Down Easy (feat. Carlos Santana)
01:02:24.674 : 11. Watch Your Step (feat. Carlos Santana)
01:09:58.674 : 12. Credits

Disc 2: Clarence "Gatemouth" Brown
1. Bits And Pieces
2. Strange Things Happen
3. I'm Beginning To See The Light
4. Sunrise Cajun Style
5. Honey Boy
6. Further On Up The Road
7. I've Got My Mojo Working (feat. Carlos Santana and Buddy Guy)
8. Drifter (feat. Carlos Santana)
9. Grape Jelly (feat. Carlos Santana)
10. Okie Dokie Stomp (feat. Carlos Santana and Nile Rodgers)

MediaInfo


General
Unique ID : 186385329800028584098787417121578669623 (0x8C38823FC685BA35B13839E60B09D637)
Complete name : C:\Users\ggu\Desktop\ggu\Carlos Santana Presents Blues at Montreux(2004)\02_Clarence_'Gatemouth'_Brown_1080P_RipByCranberbI.mkv
Format : Matroska
Format version : Version 2
File size : 7.37 GiB
Duration : 1h 11mn
Overall bit rate mode : Variable
Overall bit rate : 14.8 Mbps
Encoded date : UTC 2010-08-19 05:24:58
Writing application : mkvmerge v4.2.0 ('No Talking') сборка от Jul 28 2010 18:38:23
Writing library : libebml v1.0.0 + libmatroska v1.0.0

Video
ID : 1
Format : AVC
Format/Info : Advanced Video Codec
Format profile : [email protected]
Format settings, CABAC : Yes
Format settings, ReFrames : 4 frames
Muxing mode : Header stripping
Codec ID : V_MPEG4/ISO/AVC
Duration : 1h 11mn
Nominal bit rate : 10.2 Mbps
Width : 1 920 pixels
Height : 1 080 pixels
Display aspect ratio : 16:9
Frame rate mode : Constant
Frame rate : 29.970 (30000/1001) fps
Color space : YUV
Chroma subsampling : 4:2:0
Bit depth : 8 bits
Scan type : Progressive
Bits/(Pixel*Frame) : 0.164
Title : Clarence 'Gatemouth' Brown (Blues at Montreux 2004 )
Writing library : x264 core 104 r1698+4 db1e2d4
Encoding settings : cabac=1 / ref=5 / deblock=1:0:0 / analyse=0x3:0x133 / me=umh / subme=9 / psy=1 / fade_compensate=0.00 / psy_rd=1.00:0.00 / mixed_ref=1 / me_range=32 / chroma_me=1 / trellis=2 / 8x8dct=1 / cqm=0 / deadzone=21,11 / fast_pskip=0 / chroma_qp_offset=-2 / threads=6 / sliced_threads=0 / nr=0 / decimate=1 / interlaced=0 / constrained_intra=0 / fgo=0 / bframes=3 / b_pyramid=1 / b_adapt=1 / b_bias=0 / direct=3 / weightb=1 / open_gop=0 / weightp=2 / keyint=240 / keyint_min=24 / scenecut=40 / intra_refresh=0 / rc_lookahead=50 / rc=2pass / mbtree=1 / bitrate=10200 / ratetol=1.0 / qcomp=0.60 / qpmin=10 / qpmax=51 / qpstep=4 / cplxblur=20.0 / qblur=0.5 / ip_ratio=1.40 / aq=1:1.00
Language : English
Default : Yes
Forced : No
Color range : Full
Color primaries : BT.709
Transfer characteristics : BT.709
Matrix coefficients : BT.709

Audio #1
ID : 2
Format : FLAC
Format/Info : Free Lossless Audio Codec
Codec ID : A_FLAC
Duration : 1h 11mn
Bit rate mode : Variable
Channel(s) : 6 channels
Channel positions : Front: L C R, Side: L R, LFE
Sampling rate : 48.0 KHz
Bit depth : 24 bits
Title : DTS HD MA 2 FLAC
Writing library : libFLAC 1.2.1 (UTC 2007-09-17)
Language : English
Default : Yes
Forced : No

Audio #2
ID : 3
Format : AC-3
Format/Info : Audio Coding 3
Mode extension : CM (complete main)
Format settings, Endianness : Big
Muxing mode : Header stripping
Codec ID : A_AC3
Duration : 1h 11mn
Bit rate mode : Constant
Bit rate : 448 Kbps
Channel(s) : 6 channels
Channel positions : Front: L C R, Side: L R, LFE
Sampling rate : 48.0 KHz
Frame rate : 31.250 fps (1536 spf)
Compression mode : Lossy
Stream size : 228 MiB (3%)
Title : AC3 448
Language : English
Default : No
Forced : No

Menu
00:00:00.000 : 00_Intro
00:00:15.000 : 01_Bits and Pieces
00:06:34.995 : 02_Strange Things Happen
00:13:47.326 : 03_I'm Beginning To See The Light
00:17:20.172 : 04_Sunrise Cajun Style
00:22:51.904 : 05_Honey Boy
00:27:23.208 : 06_Further On Up The Road
00:31:35.327 : 07_I've Got My Mojo Working (with Carlos Santana & Buddy Guy)
00:39:11.482 : 08_Drifter (with Carlos Santana)
00:54:49.553 : 09_Grape Jelly (with Carlos Santana)
01:02:32.649 : 10_Okie Dokie Stomp (with Carlos Santana & Nile Rodgers)



Disc 3: Buddy Guy
1. Good Morning Little Schoolgirl
2. Louise McGhee
3. Done Got Old
4. Hoochie Coochie Man
5. Fever
6. Drowning On Dry Land
7. Stormy Monday (feat. Carlos Santana)
8. Jam Session 1 (feat. Carlos Santana and Bobby Parkers)
9. So Many Roads So Many Trains (feat. Carlos Santana and Bobby Parkers)
10. Jam Session 2 (feat. Carlos Santana, Nile Rodgers and Bobby Parkers)

MediaInfo


General
Unique ID : 177553387576513815923744903292555631277 (0x859389E0C755D509B2DCDD47B6B81AAD)
Complete name : C:\Users\ggu\Desktop\ggu\Carlos Santana Presents Blues at Montreux(2004)\03_Buddy_Guy_1080P_RipByCranberbI.mkv
Format : Matroska
Format version : Version 2
File size : 9.86 GiB
Duration : 1h 36mn
Overall bit rate mode : Variable
Overall bit rate : 14.6 Mbps
Encoded date : UTC 2010-08-21 10:02:44
Writing application : mkvmerge v4.2.0 ('No Talking') сборка от Jul 28 2010 18:38:23
Writing library : libebml v1.0.0 + libmatroska v1.0.0

Video
ID : 1
Format : AVC
Format/Info : Advanced Video Codec
Format profile : [email protected]
Format settings, CABAC : Yes
Format settings, ReFrames : 4 frames
Muxing mode : Header stripping
Codec ID : V_MPEG4/ISO/AVC
Duration : 1h 36mn
Nominal bit rate : 10.2 Mbps
Width : 1 920 pixels
Height : 1 080 pixels
Display aspect ratio : 16:9
Frame rate mode : Constant
Frame rate : 29.970 (30000/1001) fps
Color space : YUV
Chroma subsampling : 4:2:0
Bit depth : 8 bits
Scan type : Progressive
Bits/(Pixel*Frame) : 0.164
Title : Buddy Guy:Blues at Montreux 2004
Writing library : x264 core 104 r1698 c41b8f0
Encoding settings : cabac=1 / ref=5 / deblock=1:0:0 / analyse=0x3:0x133 / me=umh / subme=8 / psy=1 / psy_rd=1.00:0.00 / mixed_ref=1 / me_range=32 / chroma_me=1 / trellis=2 / 8x8dct=1 / cqm=0 / deadzone=21,11 / fast_pskip=0 / chroma_qp_offset=-2 / threads=6 / sliced_threads=0 / nr=0 / decimate=1 / interlaced=0 / constrained_intra=0 / bframes=3 / b_pyramid=1 / b_adapt=1 / b_bias=0 / direct=3 / weightb=1 / open_gop=0 / weightp=2 / keyint=240 / keyint_min=24 / scenecut=40 / intra_refresh=0 / rc_lookahead=50 / rc=2pass / mbtree=1 / bitrate=10200 / ratetol=1.0 / qcomp=0.60 / qpmin=10 / qpmax=51 / qpstep=4 / cplxblur=20.0 / qblur=0.5 / ip_ratio=1.40 / aq=1:1.00
Language : English
Default : Yes
Forced : No
Color range : Full
Color primaries : BT.709
Transfer characteristics : BT.709
Matrix coefficients : BT.709

Audio #1
ID : 2
Format : FLAC
Format/Info : Free Lossless Audio Codec
Codec ID : A_FLAC
Duration : 1h 36mn
Bit rate mode : Variable
Channel(s) : 6 channels
Channel positions : Front: L C R, Side: L R, LFE
Sampling rate : 48.0 KHz
Bit depth : 24 bits
Title : DTS-HD Master Audio 5.1 2FLAC
Writing library : libFLAC 1.2.1 (UTC 2007-09-17)
Language : English
Default : Yes
Forced : No

Audio #2
ID : 3
Format : AC-3
Format/Info : Audio Coding 3
Mode extension : CM (complete main)
Format settings, Endianness : Big
Muxing mode : Header stripping
Codec ID : A_AC3
Duration : 1h 36mn
Bit rate mode : Constant
Bit rate : 448 Kbps
Channel(s) : 6 channels
Channel positions : Front: L C R, Side: L R, LFE
Sampling rate : 48.0 KHz
Frame rate : 31.250 fps (1536 spf)
Compression mode : Lossy
Stream size : 310 MiB (3%)
Title : Dolby Digital 5.1 448
Language : English
Default : No
Forced : No

Menu
00:00:00.000 : Intro
00:00:15.000 : 1. Good Morning Little Schoolgirl
00:04:57.531 : 2. Louise McGhee
00:08:14.561 : 3. Done Got Old
00:12:33.252 : 4. Hoochie Coochie Man
00:35:29.194 : 5. Fever
00:44:10.715 : 6. Drowning On Dry Land
01:01:48.038 : 7. Stormy Monday (feat. Carlos Santana)
01:10:03.299 : 8. Jam Session 1 (feat. Carlos Santana and Bobby Parkers)
01:21:52.107 : 9. So Many Roads So Many Trains (feat. Carlos Santana and Bobby Parkers)
01:26:20.742 : 10. Jam Session 2 (feat. Carlos Santana, Nile Rodgers and Bobby Parkers)
01:36:10.000 : 11. Credits

Thanks to the original uploader
Download link:

rapidgator_net:
4n123.disc.01.part01.rar.html
4n123.disc.01.part02.rar.html
4n123.disc.01.part03.rar.html
4n123.disc.01.part04.rar.html
4n123.disc.01.part05.rar.html
4n123.disc.01.part06.rar.html
4n123.disc.01.part07.rar.html
4n123.disc.01.part08.rar.html
4n123.disc.01.part09.rar.html
4n123.disc.02.part01.rar.html
4n123.disc.02.part02.rar.html
4n123.disc.02.part03.rar.html
4n123.disc.02.part04.rar.html
4n123.disc.02.part05.rar.html
4n123.disc.02.part06.rar.html
4n123.disc.02.part07.rar.html
4n123.disc.02.part08.rar.html
4n123.disc.02.part09.rar.html
4n123.disc.03.part01.rar.html
4n123.disc.03.part02.rar.html
4n123.disc.03.part03.rar.html
4n123.disc.03.part04.rar.html
4n123.disc.03.part05.rar.html
4n123.disc.03.part06.rar.html
4n123.disc.03.part07.rar.html
4n123.disc.03.part08.rar.html
4n123.disc.03.part09.rar.html
4n123.disc.03.part10.rar.html
4n123.disc.03.part11.rar.html
4n123.disc.03.part12.rar.html

nitroflare_com:
4n123.disc.01.part01.rar
4n123.disc.01.part02.rar
4n123.disc.01.part03.rar
4n123.disc.01.part04.rar
4n123.disc.01.part05.rar
4n123.disc.01.part06.rar
4n123.disc.01.part07.rar
4n123.disc.01.part08.rar
4n123.disc.01.part09.rar
4n123.disc.02.part01.rar
4n123.disc.02.part02.rar
4n123.disc.02.part03.rar
4n123.disc.02.part04.rar
4n123.disc.02.part05.rar
4n123.disc.02.part06.rar
4n123.disc.02.part07.rar
4n123.disc.02.part08.rar
4n123.disc.02.part09.rar
4n123.disc.03.part01.rar
4n123.disc.03.part02.rar
4n123.disc.03.part03.rar
4n123.disc.03.part04.rar
4n123.disc.03.part05.rar
4n123.disc.03.part06.rar
4n123.disc.03.part07.rar
4n123.disc.03.part08.rar
4n123.disc.03.part09.rar
4n123.disc.03.part10.rar
4n123.disc.03.part11.rar
4n123.disc.03.part12.rar

bigfile_to:
4n123.disc.01.part01.rar
4n123.disc.01.part02.rar
4n123.disc.01.part03.rar
4n123.disc.01.part04.rar
4n123.disc.01.part05.rar
4n123.disc.01.part06.rar
4n123.disc.01.part07.rar
4n123.disc.01.part08.rar
4n123.disc.01.part09.rar
4n123.disc.02.part01.rar
4n123.disc.02.part02.rar
4n123.disc.02.part03.rar
4n123.disc.02.part04.rar
4n123.disc.02.part05.rar
4n123.disc.02.part06.rar
4n123.disc.02.part07.rar
4n123.disc.02.part08.rar
4n123.disc.02.part09.rar
4n123.disc.03.part01.rar
4n123.disc.03.part02.rar
4n123.disc.03.part03.rar
4n123.disc.03.part04.rar
4n123.disc.03.part05.rar
4n123.disc.03.part06.rar
4n123.disc.03.part07.rar
4n123.disc.03.part08.rar
4n123.disc.03.part09.rar
4n123.disc.03.part10.rar
4n123.disc.03.part11.rar
4n123.disc.03.part12.rar


Links are Interchangeable - No Password - Single Extraction
Direct Download

Tags: Carlos, Santana, Presents, Montreux

Comments
Name:*
E-Mail:*
Add Comments:
Enter Code: *