Download Now

William Clarke  Live In Germany (2005)

William Clarke Live In Germany (2005)
Blues | 1cd | EAC Rip | Ape + Cue + Log | covers
Watchdog, WD 1007 | rel: 2005 | 460Mb

I've always felt that a live album should make you wish you were at the gig. William Clarke's Live in Germany is just such an album.Recorded, erm, live in Germany, this excellently produced album has been rereleased to mark the 10th anniversary of his premature death.
Clarke was unquestionably a great harp player and his band is a mighty tight unit. There's enough ambient noise for that essential ‘live' feel but it's never intrusive or detracts from the recording.
His technique is a pleasing mix of Chicago and west coast styles, sounding full and rich at all times with some impeccable phrasing on both diatonic and chromatic harps. He's supported by the very able John Markowski on guitar, with Wille Brinlee on bass, and Eddie Clarke on drums. It's not complicated, just a great mix of uptempo 12bar grooves and some sophisticated slower numbers I particularly enjoyed Charles Brown's I cried All Last Night and Tampa Red's She's Dynamite.
The ending of Looking To The Future had me leaping for the rewind button on my stereo a semiimprovised break with percussive ‘pops' on the microphone that will strike a chord with Son of Dave fans. It's a shame there aren't a few more wow moments like this on the record but the band swings hard and the live energy really comes across. If you're a fan of harmonica then you'll definitely enjoy it a lot but there's plenty to recommend it to all blues fans. Good stuff.

Track listing
01. Blowin' like Hell (4:55)
02. She's Dynamite (6:34)
03. Lookin' to the Future (5:35)
04. I Cried all Last Night (6:17)
05. All Night Long (7:33)
06. Iodine in my Coffee (6:40)
07. Educated Fool (5:47)
08. Been Around the World (4:15)
09. One Room Country Shack (5:26)
10. Lollipop Mama (6:04)

eac log:



Exact Audio Copy V0.99 prebeta 4 from 23. January 2008

EAC extraction logfile from 29. June 2010, 22:20

William Clarke / Live in Germany

Used drive : TSSTcorpCDDVDW SHS222L Adapter: 3 ID: 0

Read mode : Secure
Utilize accurate stream : Yes
Defeat audio cache : Yes
Make use of C2 pointers : No

Read offset correction : 6
Overread into LeadIn and LeadOut : No
Fill up missing offset samples with silence : Yes
Delete leading and trailing silent blocks : No
Null samples used in CRC calculations : Yes
Used interface : Installed external ASPI interface

Used output format : Monkey's Audio Lossless Encoder v3.99 DLL
Sample format : Normal Lossless Compression

TOC of the extracted CD

Track | Start | Length | Start sector | End sector

1 | 0:00.00 | 4:55.23 | 0 | 22147
2 | 4:55.23 | 6:34.65 | 22148 | 51762
3 | 11:30.13 | 5:35.18 | 51763 | 76905
4 | 17:05.31 | 6:17.69 | 76906 | 105249
5 | 23:23.25 | 7:33.37 | 105250 | 139261
6 | 30:56.62 | 6:40.26 | 139262 | 169287
7 | 37:37.13 | 5:47.66 | 169288 | 195378
8 | 43:25.04 | 4:15.55 | 195379 | 214558
9 | 47:40.59 | 5:26.31 | 214559 | 239039
10 | 53:07.15 | 6:04.48 | 239040 | 266387

Range status and errors

Selected range

Filename M:\cd\William Clarke Live in Germany.ape

Peak level 98.8 %
Range quality 100.0 %
Test CRC 9051B035
Copy CRC 9051B035
Copy OK

No errors occurred


AccurateRip summary

Track 1 not present in database
Track 2 not present in database
Track 3 not present in database
Track 4 not present in database
Track 5 not present in database
Track 6 not present in database
Track 7 not present in database
Track 8 not present in database
Track 9 not present in database
Track 10 accurately ripped (confidence 1) [1D232882]

1 track(s) accurately ripped
9 track(s) not present in the AccurateRip database
password: asd
Buy Premium Account To Get Resumable Support & Max Speed

DOWNLOAD LINK


Links are Interchangeable - Single Extraction - Premium is support resumable
Direct Download

Tags: William, Clarke, Germany

Comments
Name:*
E-Mail:*
Add Comments:
Enter Code: *