Download Now

Jonas Kaufmann: Nessun Dorma - The Puccini Album (2015)

Jonas Kaufmann: Nessun Dorma - The Puccini Album (2015)
EAC Rip | Flac (Tracks + cue + log) | 265 MB | MP3 320Kbps CBR | 139 MB | 1 CD | Full Scans
Genre: Classical | Label: Sony | Catalog Number: 88875092492

Described by The Daily Telegraph as "The world's greatest tenor", Jonas Kaufmann dedicates his new album to the most popular Italian opera composer of all time, Giacomo Puccini. Featuring the most loved aria of all time, ‘Nessun Dorma', alongside stunning pieces from Manon Lescaut, La Boheme, Tosca and more. Together with Jonas Kaufmann, this album includes celebrated Royal Opera House conductor Antonio Pappano and his renowned orchestra and choir of the Accademia Nazionale Di Santa Cecilia.

Tracklisting:

01. Manon Lescaut, Atto I: (2:28)
02. Manon Lescaut, Atto II: (7:45)
03. Manon Lescaut, Atto II: (2:42)
04. Manon Lescaut, Atto III: (3:37)
05. Le Villi, Atto II: (7:27)
06. Edgar, Atto II: (5:12)
07. La Boheme Atto I: (4:14)
08. Tosca, Atto I: (2:55)
09. Madama Butterfly, Atto III: (1:52)
10. La Fanciulla del West, Atto II: (3:30)
11. La Fanciulla del West, Atto III: (4:39)
12. La Rondine, Atto I: (2:59)
13. Il Tabarro: (2:32)
14. Gianni Schicchi: (2:58)
15. Turandot, Atto I: (2:41)
16. Turandot, Atto III: (3:09)

EAC


Exact Audio Copy V1.0 beta 3 from 29. August 2011

EAC extraction logfile from 24. December 2015, 22:49

Jonas Kaufmann / Nessun Dorma: The Puccini Album

Used drive : TSSTcorpDVD+-RW TS-H653B Adapter: 2 ID: 0

Read mode : Secure
Utilize accurate stream : Yes
Defeat audio cache : Yes
Make use of C2 pointers : No

Read offset correction : 6
Overread into Lead-In and Lead-Out : No
Fill up missing offset samples with silence : Yes
Delete leading and trailing silent blocks : No
Null samples used in CRC calculations : Yes
Used interface : Installed external ASPI interface
Gap handling : Appended to previous track

Used output format : User Defined Encoder
Selected bitrate : 1024 kBit/s
Quality : High
Add ID3 tag : No
Command line compressor : C:\Program Files (x86)\Exact Audio Copy\Flac\flac.exe
Additional command line options : -8 -V -T "ARTIST=%artist%" -T "TITLE=%title%" -T "ALBUM=%albumtitle%" -T "DATE=%year%" -T "TRACKNUMBER=%tracknr%" -T "GENRE=%genre%" -T "PERFORMER=%albuminterpret%" -T "COMPOSER=%composer%" %haslyrics%-tag-from-file=LYRICS="%lyricsfile%"%haslyrics% -T "ALBUMARTIST=%albumartist%" -T "DISCNUMBER=%cdnumber%" -T "TOTALDISCS=%totalcds%" -T "TOTALTRACKS=%numtracks%" -T "COMMENT=%comment%" %source% -o %dest%

TOC of the extracted CD

Track | Start | Length | Start sector | End sector
-----------------------------
1 | 0:00.00 | 2:31.10 | 0 | 11334
2 | 2:31.10 | 7:44.56 | 11335 | 46190
3 | 10:15.66 | 2:42.56 | 46191 | 58396
4 | 12:58.47 | 3:37.73 | 58397 | 74744
5 | 16:36.45 | 7:28.68 | 74745 | 108412
6 | 24:05.38 | 5:10.63 | 108413 | 131725
7 | 29:16.26 | 4:14.47 | 131726 | 150822
8 | 33:30.73 | 2:56.72 | 150823 | 164094
9 | 36:27.70 | 1:49.60 | 164095 | 172329
10 | 38:17.55 | 3:33.31 | 172330 | 188335
11 | 41:51.11 | 4:39.30 | 188336 | 209290
12 | 46:30.41 | 2:59.05 | 209291 | 222720
13 | 49:29.46 | 2:31.17 | 222721 | 234062
14 | 52:00.63 | 3:00.61 | 234063 | 247623
15 | 55:01.49 | 2:40.62 | 247624 | 259685
16 | 57:42.36 | 3:10.22 | 259686 | 273957

Track 1

Filename C:\Jonas Kaufmann - 2015 - Nessun Dorma - The Puccini Album\01 - Manon Lescaut, Atto I- ''Donna non vidi mai''.wav

Pre-gap length 0:00:02.00

Peak level 84.0 %
Extraction speed 4.4 X
Track quality 100.0 %
Test CRC F8685D23
Copy CRC F8685D23
Accurately ripped (confidence 15) [8B6936DC] (AR v2)
Copy OK

Track 2

Filename C:\Jonas Kaufmann - 2015 - Nessun Dorma - The Puccini Album\02 - Manon Lescaut, Atto II- ''Oh, sarò la più bella!... Tu, tu, amore Tu''.wav

Pre-gap length 0:00:03.12

Peak level 96.0 %
Extraction speed 5.7 X
Track quality 100.0 %
Test CRC E8F22B81
Copy CRC E8F22B81
Accurately ripped (confidence 15) [AC11C953] (AR v2)
Copy OK

Track 3

Filename C:\Jonas Kaufmann - 2015 - Nessun Dorma - The Puccini Album\03 - Manon Lescaut, Atto II- ''Ah! Manon mi tradisce''.wav

Pre-gap length 0:00:03.22

Peak level 96.3 %
Extraction speed 5.5 X
Track quality 100.0 %
Test CRC F91110A2
Copy CRC F91110A2
Accurately ripped (confidence 15) [C3F55034] (AR v2)
Copy OK

Track 4

Filename C:\Jonas Kaufmann - 2015 - Nessun Dorma - The Puccini Album\04 - Manon Lescaut, Atto III-''Presto! In fila!... Non v'avvicinate! No, pazzo son!''.wav

Pre-gap length 0:00:03.61

Peak level 97.0 %
Extraction speed 6.1 X
Track quality 100.0 %
Test CRC B0C4170D
Copy CRC B0C4170D
Accurately ripped (confidence 15) [FB5D3D2C] (AR v2)
Copy OK

Track 5

Filename C:\Jonas Kaufmann - 2015 - Nessun Dorma - The Puccini Album\05 - Le Villi, Atto II- ''Ei giunge!... Torna ai felici dì''.wav

Pre-gap length 0:00:03.50

Peak level 96.6 %
Extraction speed 7.1 X
Track quality 100.0 %
Test CRC 5EA863A3
Copy CRC 5EA863A3
Accurately ripped (confidence 15) [9B92DEF8] (AR v2)
Copy OK

Track 6

Filename C:\Jonas Kaufmann - 2015 - Nessun Dorma - The Puccini Album\06 - Edgar, Atto II- ''Orgia, chimera dall'occhio vitreo''.wav

Pre-gap length 0:00:04.73

Peak level 89.1 %
Extraction speed 7.4 X
Track quality 100.0 %
Test CRC B52F1D26
Copy CRC B52F1D26
Accurately ripped (confidence 15) [09BD594E] (AR v2)
Copy OK

Track 7

Filename C:\Jonas Kaufmann - 2015 - Nessun Dorma - The Puccini Album\07 - La Bohème Atto I- ''O soave fanciulla''.wav

Pre-gap length 0:00:03.05

Peak level 96.3 %
Extraction speed 6.0 X
Track quality 99.9 %
Test CRC 4E46B12D
Copy CRC 4E46B12D
Accurately ripped (confidence 15) [2E88B147] (AR v2)
Copy OK

Track 8

Filename C:\Jonas Kaufmann - 2015 - Nessun Dorma - The Puccini Album\08 - Tosca, Atto I- ''Recondita armonia''.wav

Pre-gap length 0:00:02.84

Peak level 85.6 %
Extraction speed 5.5 X
Track quality 99.9 %
Test CRC 0A54F359
Copy CRC 0A54F359
Accurately ripped (confidence 15) [1EE2C40B] (AR v2)
Copy OK

Track 9

Filename C:\Jonas Kaufmann - 2015 - Nessun Dorma - The Puccini Album\09 - Madama Butterfly, Atto III- ''Addio, fiorito asil''.wav

Pre-gap length 0:00:02.92

Peak level 90.5 %
Extraction speed 6.8 X
Track quality 100.0 %
Test CRC C7E65EDA
Copy CRC C7E65EDA
Accurately ripped (confidence 15) [1ADF4F12] (AR v2)
Copy OK

Track 10

Filename C:\Jonas Kaufmann - 2015 - Nessun Dorma - The Puccini Album\10 - La Fanciulla del West, Atto II- ''Una parola sola!... Or son sei mesi''.wav

Pre-gap length 0:00:02.60

Peak level 96.6 %
Extraction speed 7.8 X
Track quality 100.0 %
Test CRC 9EFC7FBE
Copy CRC 9EFC7FBE
Accurately ripped (confidence 14) [34321B64] (AR v2)
Copy OK

Track 11

Filename C:\Jonas Kaufmann - 2015 - Nessun Dorma - The Puccini Album\11 - La Fanciulla del West, Atto III- ''Risparmiate lo scherno... Ch'ella mi creda libero''.wav

Pre-gap length 0:00:02.97

Peak level 78.2 %
Extraction speed 8.4 X
Track quality 100.0 %
Test CRC 73C8CC6E
Copy CRC 73C8CC6E
Accurately ripped (confidence 15) [C2CC054C] (AR v2)
Copy OK

Track 12

Filename C:\Jonas Kaufmann - 2015 - Nessun Dorma - The Puccini Album\12 - La Rondine, Atto I- ''Parigi! È la città dei desideri''.wav

Pre-gap length 0:00:03.61

Peak level 55.7 %
Extraction speed 8.1 X
Track quality 100.0 %
Test CRC FEA70502
Copy CRC FEA70502
Accurately ripped (confidence 15) [CF19F69D] (AR v2)
Copy OK

Track 13

Filename C:\Jonas Kaufmann - 2015 - Nessun Dorma - The Puccini Album\13 - Il Tabarro- ''Hai ben ragione''.wav

Pre-gap length 0:00:02.52

Peak level 96.6 %
Extraction speed 8.0 X
Track quality 100.0 %
Test CRC 44D22C0D
Copy CRC 44D22C0D
Accurately ripped (confidence 15) [E009E06B] (AR v2)
Copy OK

Track 14

Filename C:\Jonas Kaufmann - 2015 - Nessun Dorma - The Puccini Album\14 - Gianni Schicchi- ''Avete torto!... Firenze e come un albero fiorito''.wav

Pre-gap length 0:00:02.61

Peak level 96.9 %
Extraction speed 8.3 X
Track quality 100.0 %
Test CRC E3BE1491
Copy CRC E3BE1491
Accurately ripped (confidence 15) [AFA008D8] (AR v2)
Copy OK

Track 15

Filename C:\Jonas Kaufmann - 2015 - Nessun Dorma - The Puccini Album\15 - Turandot, Atto I- ''Non piangere, Liù!''.wav

Pre-gap length 0:00:03.00

Peak level 96.0 %
Extraction speed 8.3 X
Track quality 100.0 %
Test CRC 03DEA584
Copy CRC 03DEA584
Accurately ripped (confidence 15) [32FE6C58] (AR v2)
Copy OK

Track 16

Filename C:\Jonas Kaufmann - 2015 - Nessun Dorma - The Puccini Album\16 - Turandot, Atto III- ''Nessun dorma''.wav

Pre-gap length 0:00:02.90

Peak level 96.6 %
Extraction speed 8.7 X
Track quality 100.0 %
Test CRC 370BCE31
Copy CRC 370BCE31
Accurately ripped (confidence 15) [353A249F] (AR v2)
Copy OK

All tracks accurately ripped

No errors occurred

End of status report

==== Log checksum 065768F9CBCC109EFFC7F7C82CAE8AF1095FB459CE978568B1F8E0F8C2585E00 ====

Thanks to the original releaser
Download link:

Buy Premium To Support Me & Get Resumable Support & Max Speed:



Links are Interchangeable - No Password - Single Extraction
Direct Download

Tags: Kaufmann, Nessun, Puccini

Comments
Name:*
E-Mail:*
Add Comments:
Enter Code: *