Download Now

Vilde Frang - Britten & Korngold: Violin Concertos (2016)

Vilde Frang - Britten & Korngold: Violin Concertos (2016)
EAC Rip | Flac (Image + cue + log) | 248 MB | MP3 320Kbps CBR | 134 MB | 1 CD | Full Scans
Genre: Classical | Label: Warner Classics | Catalog Number: 554297

Both concertos on this new disc were written when their composers were in the USA around the time of World War II: the Korngold was completed in 1945, the Britten in 1939. In the course of the 1930s Korngold, an Austrian Jew, had become a prominent Hollywood composer, but could not return to his homeland after 1938; the young Britten, a pacifist, left the UK for New York shortly before the declaration of war in 1939. Both composers had been child prodigies and both concertos are centred around the key of D, the most ‘natural' key on the violin and the tonal focus for the violin concertos of Beethoven, Brahms, Tchaikovsky and Stravinsky

Tracklisting:

1. Violin Concerto in D Major, Op. 35: I. Moderato nobile
2. Violin Concerto in D Major, Op. 35: II. Romanze
3. Violin Concerto in D Major, Op. 35: IIII. Allegro assai vivace
4. Violin Concerto in D Minor, Op. 15: I. Moderato con moto - Agitato - Tempo primo -
5. Violin Concerto in D Minor, Op. 15: II. Vivace - Animando - Largamente - Cadenza
6. Violin Concerto in D Minor, Op. 15: III. Passacaglia - Andante lento (Un poco meno mosso)

EAC


Exact Audio Copy V1.1 from 23. June 2015

EAC extraction logfile from 30. April 2016, 19:42

Vilde Frang, Frankfurt Radio Symphony, James Gaffigan / Britten, Korngold - Violin Concertos

Used drive : HL-DT-STDVDRAM GU70N Adapter: 1 ID: 0

Read mode : Secure
Utilize accurate stream : Yes
Defeat audio cache : Yes
Make use of C2 pointers : No

Read offset correction : 48
Overread into Lead-In and Lead-Out : No
Fill up missing offset samples with silence : Yes
Delete leading and trailing silent blocks : No
Null samples used in CRC calculations : Yes
Used interface : Native Win32 interface for Win NT & 2000

Used output format : User Defined Encoder
Selected bitrate : 128 kBit/s
Quality : High
Add ID3 tag : No
Command line compressor : C:\Program Files (x86)\Exact Audio Copy\Flac\flac.exe
Additional command line options : -V -8 -T "Date=%year%" -T "Genre=%genre%" %source%

TOC of the extracted CD

Track | Start | Length | Start sector | End sector
-----------------------------
1 | 0:00.00 | 9:23.40 | 0 | 42264
2 | 9:23.40 | 8:50.63 | 42265 | 82077
3 | 18:14.28 | 7:31.56 | 82078 | 115958
4 | 25:46.09 | 10:04.21 | 115959 | 161279
5 | 35:50.30 | 8:10.07 | 161280 | 198036
6 | 44:00.37 | 14:09.50 | 198037 | 261761

Range status and errors

Selected range

Filename C:\temp\Korngold, Britten - Violin Concertos - Vilde Frang\Britten, Korngold - Violin Concertos.wav

Peak level 98.8 %
Extraction speed 2.0 X
Range quality 100.0 %
Test CRC 06099E1C
Copy CRC 06099E1C
Copy OK

No errors occurred

AccurateRip summary

Track 1 accurately ripped (confidence 7) [8625DA04] (AR v2)
Track 2 accurately ripped (confidence 7) [3BC5148D] (AR v2)
Track 3 accurately ripped (confidence 7) [6D9C9480] (AR v2)
Track 4 accurately ripped (confidence 7) [8482A8EA] (AR v2)
Track 5 accurately ripped (confidence 7) 851A355 (AR v2)
Track 6 accurately ripped (confidence 7) [7B2458EF] (AR v2)

All tracks accurately ripped

End of status report

==== Log checksum 2700DAC10BEEBB67ABFD443DD4F43FD2F6FAF4AAEBB1696129B24EF2182AD39A ====
Download link:

Buy Premium To Support Me & Get Resumable Support & Max Speed:



Links are Interchangeable - No Password - Single Extraction
Direct Download

Tags: Britten, Korngold, Violin, Concertos

Comments
Name:*
E-Mail:*
Add Comments:
Enter Code: *