Download Now

Fishbone - Bonin' In The Boneyard (US CD5) (1990)

Fishbone - Bonin' In The Boneyard (US CD5) (1990)
EAC Rip | FLAC with CUE and log | scans | 128 mb
MP3 CBR 320kbps | RAR | 43 mb
Genre: alternative, ska, rock, R&B, soul

Bonin' In The Boneyard is the 1990 single by California alterna ska-rockers Fishbone. This features two mixes of the title track plus three non-LP tracks.
Fishbone - Bonin' In The Boneyard (US CD5) (1990)

1. New And Improved Bonin' (6:18)
2. In The Name Of Swing (2:45)
3. Love And Bullshit (1:59)
4. Hide Behind My Glasses (4:42)
5. Bonin' In The Jungle (4:29)
Fishbone - Bonin' In The Boneyard (US CD5) (1990)
EAC Log Exact Audio Copy V1.1 from 23. June 2015

EAC extraction logfile from 2. May 2016, 9:51

Fishbone / Bonin' In The Boneyard (US CD5)

Used drive : TEAC DVD-ROM DV-28SW Adapter: 1 ID: 0

Read mode : Secure
Utilize accurate stream : Yes
Defeat audio cache : Yes
Make use of C2 pointers : No

Read offset correction

: 6
Overread into Lead-In and Lead-Out : No
Fill up missing offset samples with silence : Yes
Delete leading and trailing silent blocks : No
Null samples used in CRC calculations : Yes
Used interface
: Native Win32 interface for Win NT & 2000
Gap handling
: Left out

Used output format : Internal WAV Routines
Sample format : 44.100 Hz; 16 Bit; Stereo

TOC of the extracted CD Track | Start | Length | Start sector | End sector
--1 | 0:00.00 | 4:58.02 | 0 | 22351 2 | 4:58.02 | 2:45.43 | 22352 | 34769 3 | 7:43.45 | 1:58.27 | 34770 | 43646 4 | 9:41.72 | 4:43.00 | 43647 | 64871 5 | 14:24.72 | 4:29.35 | 64872 | 85081

Track 1 Filename C:\My Documents\My FLAC\Fishbone - Bonin' In The Boneyard (US CD5) (1990) [FLAC]\01 - New And Improved Bonin'.wav Pre-gap length 0:00:02.00 Peak level 99.5 %
Extraction speed 2.9 X
Track quality 100.0 %
Test CRC 6A59E64E
Copy CRC 6A59E64E
Accurately ripped (confidence 5) [E2C96ABE] (AR v2)
Copy OK

Track 2 Filename C:\My Documents\My FLAC\Fishbone - Bonin' In The Boneyard (US CD5) (1990) [FLAC]\02 - In The Name Of Swing.wav Peak level 95.6 %
Extraction speed 2.3 X
Track quality 99.9 %
Test CRC 747A3462
Copy CRC 747A3462
Track not fully ripped for AccurateRip lookup
Copy OK

Track 3 Filename C:\My Documents\My FLAC\Fishbone - Bonin' In The Boneyard (US CD5) (1990) [FLAC]\03 - Love And Bullshit.wav Pre-gap length 0:00:00.18 Peak level 99.8 %
Extraction speed 2.8 X
Track quality 100.0 %
Test CRC 8637A808
Copy CRC 8637A808
Accurately ripped (confidence 5) [4AA20BFE] (AR v2)
Copy OK

Track 4 Filename C:\My Documents\My FLAC\Fishbone - Bonin' In The Boneyard (US CD5) (1990) [FLAC]\04 - Hide Behind My Glasses.wav Peak level 99.8 %
Extraction speed 3.5 X
Track quality 100.0 %
Test CRC 963B9E6B
Copy CRC 963B9E6B
Track not fully ripped for AccurateRip lookup
Copy OK

Track 5 Filename C:\My Documents\My FLAC\Fishbone - Bonin' In The Boneyard (US CD5) (1990) [FLAC]\05 - Bonin' In The Jungle.wav Pre-gap length 0:00:00.40 Peak level 99.3 %
Extraction speed 3.8 X
Track quality 100.0 %
Test CRC E2364E1A
Copy CRC E2364E1A
Accurately ripped (confidence 5) [6E4660E6] (AR v2)
Copy OK

3 track(s) accurately ripped
2 track(s) not fully ripped for AccurateRip lookup

Some tracks could not be verified as accurate

No errors occurred

End of status report

==== Log checksum CE2C655AF4AFF736A6CA7915992A0BC1F66994657893F6155C24B69752BB3D43 ====
DOWNLOAD LINKS:
Buy Premium To Support Me & Get Resumable Support & Max Speed


Links are Interchangeable - No Password - Single Extraction
Direct Download

Tags: Fishbone, Boneyard

Comments
Name:*
E-Mail:*
Add Comments:
Enter Code: *