Download Now

Brian Bromberg - Full Circle (2016)

Brian Bromberg - Full Circle (2016)
EAC | FLAC | Image (Cue&Log) ~ 482 Mb (incl 5%) | Scans ~ 122 Mb | Time: 01:13:06
Genre: Contemporary Jazz, Post-Bop | Label: Artistry Music | # ART7047

World-renowned acoustic and electric bassist Brian Bromberg hasn't released an album in the U.S. since 2012, a fact that might not have been cause for concern if you know that at one point he released three albums in one year. Every man deserves a break. However, once you realize that this chameleon with over 20 projects in his catalog recently had reason to believe that he might never play music again, you understand the gravity of his latest acoustic jazz project, Full Circle - one he says may well be "the most important record of my career." Like all of his work, Bromberg's latest features a stellar cast that includes trumpeter Arturo Sandoval, saxophonists Bob Sheppard, Kirk Whalum and Doug Webb, pianists Randy Waldman,Mitch Forman and Otmaro Ruiz, and percussionist Alex Acuña. The project also finds ‘the man that refuses to sit still' mixing styles from New Orleans funk and a legit jazz cover of Michael Jackson's "Don't Stop `Til You Get Enough" to Cubop - with a sizzling relentless swing throughout.

Tracklist:

01. Jazz Me Blues (02:24)
02. Full Circle (08:49)
03. Sneaky Pete (07:04)
04. Saturday Night In The Village (05:28)
05. Boomerang (09:56)
06. Havana Nights (Havananagila) (08:36)
07. Bernie's Bop (08:12)
08. Don't Stop 'Til You Get Enough (05:59)
09. Naw'lins! (08:24)
10. Susumu's Blues (05:51)
11. Washington and Lee Swing (02:18)


EAC log


Exact Audio Copy V1.1 from 23. June 2015

Отчёт EAC об извлечении, выполненном 26. апреля 2016, 1:53

Brian Bromberg / Full Circle

Дисковод: Optiarc DVD RW AD-7700S Adapter: 1 ID: 2

Режим чтения : Достоверность
Использование точного потока : Да
Отключение кэша аудио : Да
Использование указателей C2 : Нет

Коррекция смещения при чтении : 48
Способность читать области Lead-in и Lead-out : Нет
Заполнение пропущенных сэмплов тишиной : Да
Удаление блоков с тишиной в начале и конце : Нет
При вычислениях CRC использовались нулевые сэмплы : Да
Интерфейс : Встроенный Win32-интерфейс для Win NT/2000

Выходной формат : Пользовательский кодировщик
Выбранный битрейт : 768 kBit/s
Качество : Высокий
Добавление ID3-тега : Нет
Утилита сжатия : C:\Program Files\Exact Audio Copy\FLAC\FLAC.EXE
Дополнительные параметры : -6 -V -T "ARTIST=%artist%" -T "TITLE=%title%" -T "ALBUM=%albumtitle%" -T "DATE=%year%" -T "TRACKNUMBER=%tracknr%" -T "GENRE=%genre%" -T "COMMENT=%comment%" -T "BAND=%albuminterpret%" -T "ALBUMARTIST=%albuminterpret%" -T "COMPOSER=%composer%" %haslyrics%-tag-from-file=LYRICS="%lyricsfile%"%haslyrics% -T "DISCNUMBER=%cdnumber%" -T "TOTALDISCS=%totalcds%" -T "TOTALTRACKS=%numtracks%" %hascover%-picture="%coverfile%"%hascover% %source% -o %dest%

TOC извлечённого CD

Трек | Старт | Длительность | Начальный сектор | Конечный сектор
-----------------------------------
1 | 0:00.00 | 2:24.20 | 0 | 10819
2 | 2:24.20 | 8:49.50 | 10820 | 50544
3 | 11:13.70 | 7:04.28 | 50545 | 82372
4 | 18:18.23 | 5:28.38 | 82373 | 107010
5 | 23:46.61 | 9:56.74 | 107011 | 151784
6 | 33:43.60 | 8:36.52 | 151785 | 190536
7 | 42:20.37 | 8:12.23 | 190537 | 227459
8 | 50:32.60 | 5:59.29 | 227460 | 254413
9 | 56:32.14 | 8:24.05 | 254414 | 292218
10 | 64:56.19 | 5:51.22 | 292219 | 318565
11 | 70:47.41 | 2:18.38 | 318566 | 328953

Характеристики диапазона извлечения и сообщения об ошибках

Выбранный диапазон

Имя файла E:\Uploads 2016\Brian Bromberg - Full Circle - 2016 - 73'08''\Brian Bromberg - Full Circle.wav

Пиковый уровень 100.0 %
Скорость извлечения 2.2 X
Качество диапазона 99.9 %
CRC теста FAB100DF
CRC копии FAB100DF
Копирование... OK

Ошибок не произошло

Конец отчёта

-- CUETools DB Plugin V2.1.6

[CTDB TOCID: CyVlwBjuFHySnVAGgYoNyUIKU1g-] found
Submit result: CyVlwBjuFHySnVAGgYoNyUIKU1g- has been confirmed
Track | CTDB Status
1 | (2/2) Accurately ripped
2 | (2/2) Accurately ripped
3 | (2/2) Accurately ripped
4 | (2/2) Accurately ripped
5 | (2/2) Accurately ripped
6 | (2/2) Accurately ripped
7 | (2/2) Accurately ripped
8 | (2/2) Accurately ripped
9 | (2/2) Accurately ripped
10 | (2/2) Accurately ripped
11 | (2/2) Accurately ripped

==== Контрольная сумма отчёта 57DC6DDA27078CB5EBC1D9B3E63CC3E751028622DCE824C926AA08085632D795 ====

DR log


foobar2000 1.2 / Dynamic Range Meter 1.1.1
log date: 2016-04-30 22:20:46

----------------------------------------
Analyzed: Brian Bromberg / Full Circle
----------------------------------------

DR Peak RMS Duration Track
----------------------------------------
DR11 -1.70 dB -15.58 dB 2:24 01-Jazz Me Blues
DR11 -0.24 dB -12.34 dB 8:50 02-Full Circle
DR10 -0.16 dB -11.84 dB 7:04 03-Sneaky Pete
DR10 -0.18 dB -11.49 dB 5:29 04-Saturday Night In The Village
DR10 0.00 dB -11.45 dB 9:57 05-Boomerang
DR10 0.00 dB -11.03 dB 8:37 06-Havana Nights (Havananagila)
DR11 -0.18 dB -12.66 dB 8:12 07-Bernie's Bop
DR10 -0.03 dB -11.99 dB 5:59 08-Don't Stop 'Til You Get Enough
DR9 -0.37 dB -10.61 dB 8:24 09-Naw'lins!
DR10 -1.01 dB -12.46 dB 5:51 10-Susumu's Blues
DR10 -3.00 dB -14.89 dB 2:19 11-Washington and Lee Swing
----------------------------------------

Number of tracks: 11
Official DR value: DR10

Samplerate: 44100 Hz
Channels: 2
Bits per sample: 16
Bitrate: 878 kbps
Codec: FLAC
================================================================================



Password: designol
Download link:

Buy Premium To Support Me & Get Resumable Support & Max Speed:



Links are Interchangeable - No Password - Single Extraction
Direct Download

Tags: Bromberg, Circle

Comments
Name:*
E-Mail:*
Add Comments:
Enter Code: *