Download Now

Majority One - Majority One (1971) {2007, Reissue}

Majority One - Majority One (1971/2007)
EAC Rip | FLAC (Img) + Cue + Log ~ 386 Mb | MP3 CBR320 ~ 151 Mb
Scans (PNG, 300 dpi) ~ 35 Mb | RAR 5% Recovery
Psychedelic Rock, Pop Rock | Second Harvest #411

On some obscure releases of the early '70s, Majority One wrote and recorded material in the manner of some of the more foppish late-'60s British psychedelic pop, though the style had been out of fashion for a couple of years or so. The group evolved out of the U.K. band the Majority, who issued eight singles on Decca between 1965 and 1968 without reaching the British charts. After a lot of personnel turnover and a spell backing British singer Barry Ryan, the group moved to France and issued one final single as the Majority, "Charlotte Rose," though this was only released in some European territories. In 1970, still based in France, they changed their name to Majority One, issuing a few singles ...

Track List:

01. Feedback [03:28]
02. Rainbow Rocking Chair [02:25]
03. A Cigarette A Cup Of Tea [02:50]
04. I Nearly Died [03:34]
05. Looks Like Rain [02:50]
06. Glass Image [02:44]
07. Because I Love [02:10]
08. Love Came Today [02:42]
09. Dephts Of My Mind [02:17]
10. I Don't Mind The Rain [03:33]
11. I See Her Everywhere [02:31]
12. Roger La Frite [05:49]
13. Revelation [00:39]
14. (bonus track) Get Back Home [02:46]
15. (bonus track) A Hard Day's Night [03:34]
16. (bonus track) Friday Man [03:10]
17. (bonus track) Charlotte Rose [02:54]
18. (bonus track) Letter From The Queen [02:44]
19. (bonus track) No Matter What [03:01]
20. (bonus track) Freedom [02:50]
21. (bonus track) Birds Must Learn To Fly [04:35]

EAC Log


Exact Audio Copy V1.1 from 23. June 2015

EAC extraction logfile from 30. April 2016, 8:58

Majority One / Majority One

Used drive : PLEXTOR DVDR PX-716A Adapter: 1 ID: 1

Read mode : Secure
Utilize accurate stream : Yes
Defeat audio cache : Yes
Make use of C2 pointers : No

Read offset correction : 30
Overread into Lead-In and Lead-Out : No
Fill up missing offset samples with silence : Yes
Delete leading and trailing silent blocks : No
Null samples used in CRC calculations : Yes
Used interface : Native Win32 interface for Win NT & 2000

Used output format : User Defined Encoder
Selected bitrate : 1024 kBit/s
Quality : High
Add ID3 tag : No
Command line compressor : C:\Program Files (x86)\Exact Audio Copy\wavpack.exe
Additional command line options : -hlm %source%

TOC of the extracted CD

Track | Start | Length | Start sector | End sector
-----------------------------
1 | 0:00.00 | 3:27.24 | 0 | 15548
2 | 3:27.24 | 2:24.19 | 15549 | 26367
3 | 5:51.43 | 2:49.24 | 26368 | 39066
4 | 8:40.67 | 3:33.51 | 39067 | 55092
5 | 12:14.43 | 2:49.59 | 55093 | 67826
6 | 15:04.27 | 2:43.30 | 67827 | 80081
7 | 17:47.57 | 2:09.58 | 80082 | 89814
8 | 19:57.40 | 2:41.09 | 89815 | 101898
9 | 22:38.49 | 2:16.14 | 101899 | 112112
10 | 24:54.63 | 3:32.14 | 112113 | 128026
11 | 28:27.02 | 2:30.42 | 128027 | 139318
12 | 30:57.44 | 5:48.28 | 139319 | 165446
13 | 36:45.72 | 0:38.25 | 165447 | 168321
14 | 37:24.22 | 2:45.16 | 168322 | 180712
15 | 40:09.38 | 3:33.45 | 180713 | 196732
16 | 43:43.08 | 3:09.71 | 196733 | 210978
17 | 46:53.04 | 2:53.25 | 210979 | 223978
18 | 49:46.29 | 2:43.59 | 223979 | 236262
19 | 52:30.13 | 3:00.45 | 236263 | 249807
20 | 55:30.58 | 2:49.38 | 249808 | 262520
21 | 58:20.21 | 4:34.60 | 262521 | 283130

Range status and errors

Selected range

Filename D:\wwphil\Majority One - Majority One\Majority One - Majority One.wav

Peak level 96.8 %
Extraction speed 3.8 X
Range quality 100.0 %
Test CRC B981372A
Copy CRC B981372A
Copy OK

No errors occurred


AccurateRip summary

Track 1 not present in database
Track 2 not present in database
Track 3 not present in database
Track 4 not present in database
Track 5 not present in database
Track 6 not present in database
Track 7 not present in database
Track 8 not present in database
Track 9 not present in database
Track 10 not present in database
Track 11 not present in database
Track 12 not present in database
Track 13 not present in database
Track 14 not present in database
Track 15 not present in database
Track 16 not present in database
Track 17 not present in database
Track 18 not present in database
Track 19 not present in database
Track 20 not present in database
Track 21 not present in database

None of the tracks are present in the AccurateRip database

End of status report

==== Log checksum CE222238986E6CA0E80A6CD6990B924EAE46D3E3E67E2D4DA65A2701DD6FC313 ====

DR Log


foobar2000 1.2.6 / Dynamic Range Meter 1.1.1
log date: 2016-04-30 18:30:20

----------------------------------------
Analyzed: Majority One / Majority One
----------------------------------------

DR Peak RMS Duration Track
----------------------------------------
DR10 -0.27 dB -10.98 dB 3:27 01-Feedback
DR9 -0.30 dB -11.73 dB 2:24 02-Rainbow Rocking Chair
DR11 -0.30 dB -12.79 dB 2:49 03-A Cigarette A Cup Of Tea
DR10 -0.30 dB -13.67 dB 3:34 04-I Nearly Died
DR11 -0.30 dB -14.67 dB 2:50 05-Looks Like Rain
DR10 -0.30 dB -13.10 dB 2:43 06-Glass Image
DR9 -0.30 dB -12.18 dB 2:10 07-Because I Love
DR10 -0.30 dB -12.76 dB 2:41 08-Love Came Today
DR11 -0.30 dB -13.68 dB 2:16 09-Dephts Of My Mind
DR12 -0.30 dB -15.06 dB 3:32 10-I Don't Mind The Rain
DR11 -0.79 dB -16.34 dB 2:31 11-I See Her Everywhere
DR10 -0.30 dB -12.18 dB 5:48 12-Roger La Frite
DR9 -4.21 dB -18.96 dB 0:38 13-Revelation
DR10 -0.30 dB -11.62 dB 2:45 14-(bonus track) Get Back Home
DR7 -0.30 dB -8.83 dB 3:34 15-(bonus track) A Hard Day's Night
DR7 -0.30 dB -7.87 dB 3:10 16-(bonus track) Friday Man
DR7 -0.30 dB -9.47 dB 2:53 17-(bonus track) Charlotte Rose
DR8 -0.30 dB -11.15 dB 2:44 18-(bonus track) Letter From The Queen
DR8 -0.30 dB -8.96 dB 3:01 19-(bonus track) No Matter What
DR8 -0.30 dB -9.60 dB 2:50 20-(bonus track) Freedom
DR10 -0.30 dB -12.73 dB 4:35 21-(bonus track) Birds Must Learn To Fly
----------------------------------------

Number of tracks: 21
Official DR value: DR9

Samplerate: 44100 Hz
Channels: 2
Bits per sample: 16
Bitrate: 818 kbps
Codec: FLAC
================================================================================

CUETools Log


[CUETools log; Date: 30.04.2016 18:30:23; Version: 2.1.5]
[CTDB TOCID: 2SDDMT.h79Qpxx9tsTHQCfmonbU-] disk not present in database.
[AccurateRip ID: 002e47df-02c6688d-260ebf15] disk not present in database.

Track Peak [ CRC32 ] [W/O NULL] [ LOG ]
- 96,8 981372A [3708CA47] CRC32
01 96,8 [3C8AB0F7] [5EC032AD]
02 96,6 [E7575BB0] [94C033F8]
03 96,6 [2D2A837C] [8AD64D42]
04 96,6 [AE9AA192] [E0FFB507]
05 96,6 [A6ACC3DC] [C97BABEA]
06 96,6 [575A6833] [ADC219F5]
07 96,6 [7D3F508E] [46889202]
08 96,6 [176D5668] [FF0381F9]
09 96,6 [E2BF7E7B] [73C7BF4F]
10 96,6 86734EC [4863F5FB]
11 91,3 E6EB6B8 [9254EE42]
12 96,6 [1CE1DB16] [5DA7E4CA]
13 61,6 [9687FC59] [16CD595C]
14 96,6 [8280845D] [FDA5C0A1]
15 96,6 [C7C83507] [5393B137]
16 96,6 [AB4792CB] [7CCE6E91]
17 96,6 [D13567BA] C7CF57B
18 96,6 [DCA9AFD6] 65FA52E
19 96,6 [33C212F8] [15D17793]
20 96,6 [8D9C2D3B] [28DDEFCA]
21 96,6 [3DB8EACA] [DEB1A94C]
Download link:

Buy Premium To Support Me & Get Resumable Support & Max Speed:



Links are Interchangeable - No Password - Single Extraction
Direct Download

Tags: Majority, Majority, Reissue

Comments
Name:*
E-Mail:*
Add Comments:
Enter Code: *