Download Now

Beth Hart - Live At Paradiso (2005) [Re-Up]

Beth Hart - Live At Paradiso (2005)
EAC | FLAC | Image (Cue&Log) ~ 555 Mb (incl 5%) | Mp3 (CBR320) ~ 178 Mb (incl 5%) | Scans ~ 67 Mb
Genre: Rock | Label: Koch Records | # KOC-CD-9962 | Time: 01:14:06

This live date from Beth Hart was recorded at the famed Paradiso Theater in Holland. Hart is an artist who knows no boundaries when it comes to confessional disclosure and in a live setting it works well. She pours out her soul to an audience who knows what she's about. The music is rawer than on her studio offerings and her delivery is all passion, pathos, pain, and power. It's true she's not Janis Joplin but the comparisons are unfair to begin with. Hart's a thoroughly modern artist. She's listened to all the records from the days of yore and she's been influenced by them, but the stuff she sings about comes right from her own life and experience.

Tracklist:

01. Delicious Surprise (04:15)
02. Guilty (04:52)
03. Leave The Light On (04:42)
04. Lifts You Up (03:58)
05. Broken & Ugly (04:47)
06. Get Your Shit Together (05:55)
07. Immortal (07:07)
08. Monkey Back (05:37)
09. Am I The One (10:44)
10. Mama (04:24)
11. L.A. Song (04:31)
12. World Without You (05:16)
13. Whole Lotta Love (07:53)


EAC log


Exact Audio Copy V1.0 beta 3 from 29. August 2011

EAC extraction logfile from 26. September 2012, 23:47

Beth Hart / Live At Paradiso

Used drive : Optiarc DVD RW AD-5200S Adapter: 2 ID: 0

Read mode : Secure
Utilize accurate stream : Yes
Defeat audio cache : Yes
Make use of C2 pointers : No

Read offset correction : 48
Overread into Lead-In and Lead-Out : No
Fill up missing offset samples with silence : Yes
Delete leading and trailing silent blocks : No
Null samples used in CRC calculations : Yes
Used interface : Native Win32 interface for Win NT & 2000

Used output format : User Defined Encoder
Selected bitrate : 1024 kBit/s
Quality : High
Add ID3 tag : No
Command line compressor : C:\Program Files (x86)\Exact Audio Copy\FLAC\FLAC.EXE
Additional command line options : -8 -V -T "ARTIST=%artist%" -T "TITLE=%title%" -T "ALBUM=%albumtitle%" -T "DATE=%year%" -T "TRACKNUMBER=%tracknr%" -T "GENRE=%genre%" -T "PERFORMER=%albuminterpret%" -T "COMPOSER=%composer%" %haslyrics%-tag-from-file=LYRICS="%lyricsfile%"%haslyrics% -T "ALBUMARTIST=%albumartist%" -T "DISCNUMBER=%cdnumber%" -T "TOTALDISCS=%totalcds%" -T "TOTALTRACKS=%numtracks%" -T "COMMENT=%comment%" %source% -o %dest%

TOC of the extracted CD

Track | Start | Length | Start sector | End sector
-----------------------------
1 | 0:00.00 | 4:15.15 | 0 | 19139
2 | 4:15.15 | 4:52.18 | 19140 | 41057
3 | 9:07.33 | 4:42.32 | 41058 | 62239
4 | 13:49.65 | 3:58.45 | 62240 | 80134
5 | 17:48.35 | 4:47.48 | 80135 | 101707
6 | 22:36.08 | 5:55.45 | 101708 | 128377
7 | 28:31.53 | 7:07.17 | 128378 | 160419
8 | 35:38.70 | 5:37.13 | 160420 | 185707
9 | 41:16.08 | 10:44.35 | 185708 | 234042
10 | 52:00.43 | 4:24.49 | 234043 | 253891
11 | 56:25.17 | 4:31.08 | 253892 | 274224
12 | 60:56.25 | 5:16.58 | 274225 | 297982
13 | 66:13.08 | 7:53.57 | 297983 | 333514

Range status and errors

Selected range

Filename G:\Download\Музыка LossLess\Beth Hart\2005 - Beth Hart - Live At Paradiso (KOC-CD-9962)\Beth Hart - Live At Paradiso.wav

Peak level 98.8 %
Extraction speed 4.4 X
Range quality 100.0 %
Test CRC 8FC0A2AE
Copy CRC 8FC0A2AE
Copy OK

No errors occurred


AccurateRip summary

Track 1 cannot be verified as accurate (confidence 9) [1A88C4BA], AccurateRip returned [C84D7268] (AR v2)
Track 2 cannot be verified as accurate (confidence 9) [23B1BE10], AccurateRip returned [1E00B83A] (AR v2)
Track 3 cannot be verified as accurate (confidence 9) [40A6BBCE], AccurateRip returned [7E9E9255] (AR v2)
Track 4 cannot be verified as accurate (confidence 9) [6C3E162D], AccurateRip returned [F4748AC1] (AR v2)
Track 5 cannot be verified as accurate (confidence 9) [041D4912], AccurateRip returned [7654FD0E] (AR v2)
Track 6 cannot be verified as accurate (confidence 9) [C5E5198A], AccurateRip returned [E07B2B22] (AR v2)
Track 7 cannot be verified as accurate (confidence 9) [771E9B47], AccurateRip returned [F380123D] (AR v2)
Track 8 cannot be verified as accurate (confidence 9) [AE16A34C], AccurateRip returned [F1AB3792] (AR v2)
Track 9 cannot be verified as accurate (confidence 9) [FED3B2E6], AccurateRip returned [34C6F5F3] (AR v2)
Track 10 cannot be verified as accurate (confidence 9) [1F68BE95], AccurateRip returned [8880F429] (AR v2)
Track 11 cannot be verified as accurate (confidence 9) 3818D9D, AccurateRip returned [E6C3FF8B] (AR v2)
Track 12 cannot be verified as accurate (confidence 9) [E8E4CC21], AccurateRip returned [AD94A63B] (AR v2)
Track 13 cannot be verified as accurate (confidence 9) [2CD1ECB3], AccurateRip returned [6EB7D6DF] (AR v2)

No tracks could be verified as accurate
You may have a different pressing from the one(s) in the database

End of status report

==== Log checksum F9799CB7B8C69A7210AD1A81A061A6EA0B4AB05B86F2880C0708ADE1B18F9C33 ====

DR log


foobar2000 1.2 / Dynamic Range Meter 1.1.1
log date: 2013-03-28 16:48:20

----------------------------------------
Analyzed: Beth Hart / Live At Paradiso
----------------------------------------

DR Peak RMS Duration Track
----------------------------------------
DR8 -0.40 dB -10.46 dB 4:15 01-Delicious Surprise
DR9 -0.10 dB -11.98 dB 4:52 02-Guilty
DR8 -0.11 dB -10.58 dB 4:42 03-Leave The Light On
DR8 -0.37 dB -10.19 dB 3:59 04-Lifts You Up
DR8 -0.38 dB -10.07 dB 4:48 05-Broken & Ugly
DR9 -0.10 dB -11.16 dB 5:56 06-Get Your Shit Together
DR9 -0.14 dB -11.79 dB 7:07 07-Immortal
DR9 -0.10 dB -11.38 dB 5:37 08-Monkey Back
DR9 -0.10 dB -10.97 dB 10:44 09-Am I The One
DR7 -0.10 dB -10.34 dB 4:25 10-Mama
DR8 -0.10 dB -10.83 dB 4:31 11-L.A. Song
DR8 -0.10 dB -9.71 dB 5:17 12-World Without You
DR9 -0.10 dB -11.37 dB 7:54 13-Whole Lotta Love
----------------------------------------

Number of tracks: 13
Official DR value: DR8

Samplerate: 44100 Hz
Channels: 2
Bits per sample: 16
Bitrate: 997 kbps
Codec: FLAC
================================================================================



Password: designol
Download link:

Buy Premium To Support Me & Get Resumable Support & Max Speed:



Links are Interchangeable - No Password - Single Extraction
Direct Download

Tags: Paradiso

Comments
Name:*
E-Mail:*
Add Comments:
Enter Code: *