Download Now

The Gap Band - The Gap Band III (1980) [1993, Reissue]

The Gap Band - The Gap Band III (1980) [1993, Reissue]
R&B, Funk/Soul | EAC Rip | FLAC, Img+CUE+LOG+Full Scans-300dpi (PNG) | 45:05 Min | 334,35 Mb
Label: Mercury/PolyGram Records, Inc. (USA) | Released: 1993, July, 6

The Gap Band III is the fifth album (contrary to the title) by The Gap Band, released in 1980 on Mercury Records. It was produced by Lonnie Simmons. It was their first album to achieve platinum status. The album reached #1 on the Black Albums chart and #16 on the Billboard Hot 200. The album yielded 3 charting singles: the #60 R&B song "Humpin'", "Yearning for Your Love", a #5 R&B single which peaked at #60 on the Billboard Hot 100, and the #1 R&B hit "Burn Rubber (Why You Wanna Hurt Me)", which reached #19 on the dance charts and #84 on the Hot 100. This would be the group's final release by Mercury Records. The Gap Band's next six albums were released on Total Experience Records.

Tracklist:

01. "When I Look In Your Eyes" (05:02)
(L. Simmons, R. Taylor, W. Raglin)
02. "Yearning For Your Love" (05:43)
(O. Scott, R. Wilson)
03. "Burn Rubber On Me (Why You Wanna Hurt Me)" (05:33)
(C. Wilson, L. Simmons, R. Taylor)
04. "Nothin' Comes To Sleepers" (05:36)
(O. Scott, R. Wilson)
05. "Are You Living" (04:25)
(C. Wilson, J. Black)
06. "Sweet Caroline" (03:23)
(C. Wilson, M. Vice)
07. "Humpin'" (05:15)
(C. Wilson, L. Simmons, R. Wilson, R. Taylor)
08. "The Way" (04:49)
(O. Scott, R. Wilson)
09. "Gash Gash Gash" (05:19)
(R. Wilson)

EAC log


Exact Audio Copy V1.1 from 23. June 2015

EAC extraction logfile from 23. April 2016, 22:44

The Gap Band / The Gap Band III

Used drive : Memorex 52MAXX 3252AJ1 Adapter: 1 ID: 1

Read mode : Secure
Utilize accurate stream : Yes
Defeat audio cache : Yes
Make use of C2 pointers : No

Read offset correction : 6
Overread into Lead-In and Lead-Out : No
Fill up missing offset samples with silence : Yes
Delete leading and trailing silent blocks : No
Null samples used in CRC calculations : Yes
Used interface : Native Win32 interface for Win NT & 2000

Used output format : User Defined Encoder
Selected bitrate : 896 kBit/s
Quality : High
Add ID3 tag : No
Command line compressor : C:\Program Files (x86)\Exact Audio Copy\Flac\flac.exe
Additional command line options : %ishigh%-V -p -l 12 -b 4096 -m -e -r 8%ishigh%%islow%-5%islow% -replay-gain -T "ARTIST=%artist%" -T "ALBUM=%albumtitle%" -T "TITLE=%title%" -T "DATE=%year%" -T "TRACKNUMBER=%tracknr%" -T "GENRE=%genre%" -T "ENSEMBLE=%albuminterpret%" -T "ALBUMARTIST=%albumartist%" -T "COMPOSER=%albumcomposer%" -T "DISCNUMBER=%cdnumber%" -T "TOTALDISCS=%totalcds%" -T "TOTALTRACKS=%numtracks%" -T "SOURCEMEDIA=CD" -T "COMMENT=%comment%" %hascover%-T "PICTURE=%coverfile%"%hascover% %source%

TOC of the extracted CD

Track | Start | Length | Start sector | End sector
-----------------------------
1 | 0:00.32 | 5:02.28 | 32 | 22709
2 | 5:02.60 | 5:43.30 | 22710 | 48464
3 | 10:46.15 | 5:33.17 | 48465 | 73456
4 | 16:19.32 | 5:35.55 | 73457 | 98636
5 | 21:55.12 | 4:24.73 | 98637 | 118509
6 | 26:20.10 | 3:23.15 | 118510 | 133749
7 | 29:43.25 | 5:15.27 | 133750 | 157401
8 | 34:58.52 | 4:48.50 | 157402 | 179051
9 | 39:47.27 | 5:18.68 | 179052 | 202969

Range status and errors

Selected range

Filename C:\Users\[email protected]\Music\Archives\Rips\The Gap Band - The Gap Band III.wav

Peak level 96.2 %
Extraction speed 8.6 X
Range quality 100.0 %
Test CRC 485AD764
Copy CRC 485AD764
Copy OK

No errors occurred


AccurateRip summary

Track 1 accurately ripped (confidence 3) [355AA169] (AR v2)
Track 2 accurately ripped (confidence 3) [C0D44247] (AR v2)
Track 3 accurately ripped (confidence 3) [CDF46742] (AR v2)
Track 4 accurately ripped (confidence 3) [0D1634ED] (AR v2)
Track 5 accurately ripped (confidence 4) [40F1042E] (AR v2)
Track 6 accurately ripped (confidence 4) [AC822EEC] (AR v2)
Track 7 accurately ripped (confidence 4) [4A3A7422] (AR v2)
Track 8 accurately ripped (confidence 4) [471AC86D] (AR v2)
Track 9 accurately ripped (confidence 4) [EE690C36] (AR v2)

All tracks accurately ripped

End of status report

-- CUETools DB Plugin V2.1.6

[CTDB TOCID: wfNMUHyFn2CL4TqUvqGH2iUVbtk-] found
Submit result: wfNMUHyFn2CL4TqUvqGH2iUVbtk- has been confirmed
Track | CTDB Status
1 | (4/4) Accurately ripped
2 | (4/4) Accurately ripped
3 | (4/4) Accurately ripped
4 | (4/4) Accurately ripped
5 | (4/4) Accurately ripped
6 | (4/4) Accurately ripped
7 | (4/4) Accurately ripped
8 | (4/4) Accurately ripped
9 | (4/4) Accurately ripped

==== Log checksum E7CF6D7727D3BA4B99A43DD5D2497F2181603DEA9D5320155D9BEC0E73990020 ====

Dynamic Range Meter log


foobar2000 1.3.9 / Dynamic Range Meter 1.1.1
log date: 2016-04-30 20:44:24

----------------------------------------
Analyzed: The Gap Band / The Gap Band III
----------------------------------------

DR Peak RMS Duration Track
----------------------------------------
DR15 -0.77 dB -17.76 dB 5:02 01-When I Look Into Your Eyes
DR14 -0.70 dB -17.26 dB 5:43 02-Yearning For Your Love
DR12 -0.69 dB -14.46 dB 5:33 03-Burn Rubber On Me
DR13 -1.45 dB -17.66 dB 5:36 04-Nothin' Comes To Sleepers
DR15 -0.94 dB -18.37 dB 4:25 05-Are You Living
DR16 -0.34 dB -18.81 dB 3:23 06-Sweet Caroline
DR13 -1.17 dB -16.42 dB 5:15 07-Humpin'
DR15 -0.86 dB -17.89 dB 4:49 08-The Way
DR13 -0.59 dB -15.50 dB 5:19 09-Gash Gash Gash
----------------------------------------

Number of tracks: 9
Official DR value: DR14

Samplerate: 44100 Hz
Channels: 2
Bits per sample: 16
Bitrate: 872 kbps
Codec: FLAC
================================================================================


password: BlondStyle
Download link:

Buy Premium To Support Me & Get Resumable Support & Max Speed:



Links are Interchangeable - No Password - Single Extraction
Direct Download

Tags: Reissue

Comments
Name:*
E-Mail:*
Add Comments:
Enter Code: *