Download Now

Judy Collins - Hard Times For Lovers (1979) [1989, Reissue]

Judy Collins - Hard Times For Lovers (1979) [1989, Reissue]
Pop/Rock, Folk | EAC Rip | FLAC, Tracks+CUE+LOG+Scans-600dpi (JPEG) | 37:49 Min | 245,71 Mb
Label: Elektra / Asylum Records (Germany) | Released: 1989, March, 14

Hard Times For Lovers is an album by Judy Collins, released on Elektra Records in 1979. Collins' first album of new material since Bread and Roses in 1976, some extra publicity was earned as a result of the back cover of the Francesco Scavullo-photographed sleeve art, depicting most of a nude Collins as seen from the back. The album was still something of a commercial disappointment, however, peaking at #54 on the Billboard Pop Albums charts.

Tracklist:

01. "Hard Times For Lovers" (03:57)
(Hugh Prestwood)
02. "Marie" (03:12)
(Randy Newman)
03. "Happy End" (03:12)
(Henry Gaffeny)
04. "Desperado" (03:34)
(Don Henley, Glenn Frey)
05. "I Remember Sky" (04:00)
(Stephen Sondheim)
06. "Starmaker" (04:29)
(Bruce Roberts)
07. "Dorothy" (04:37)
(Carole Bayer Sager, Hugh Prestwood)
08. "Theme From The Universal Picture "The Promise" (I'll Never Say "Goodbye")" (03:41)
(Alan & Marilyn Bergman, David Shire)
09. "Theme From "Ice Castles"(Through The Eyes Of Love)" (03:28)
(Carole Bayer Sager, Marvin Hamlisch)
10. "Where Or When" (03:38)
(Lorenz Hart, Richard Rodgers)

EAC log


Exact Audio Copy V1.0 beta 3 from 29. August 2011

EAC extraction logfile from 13. March 2016, 7:17

Judy Collins / Hard Times For Lovers

Used drive : HL-DT-STDVDRAM GH24NS90 Adapter: 1 ID: 0

Read mode : Secure
Utilize accurate stream : Yes
Defeat audio cache : No
Make use of C2 pointers : Yes

Read offset correction : 6
Overread into Lead-In and Lead-Out : No
Fill up missing offset samples with silence : Yes
Delete leading and trailing silent blocks : No
Null samples used in CRC calculations : Yes
Used interface : Native Win32 interface for Win NT & 2000
Gap handling : Appended to previous track

Used output format : User Defined Encoder
Selected bitrate : 1024 kBit/s
Quality : High
Add ID3 tag : No
Command line compressor : C:\Program Files (x86)\FLAC\metaflac.exe
Additional command line options : -8

TOC of the extracted CD

Track | Start | Length | Start sector | End sector
-----------------------------
1 | 0:00.00 | 3:57.08 | 0 | 17782
2 | 3:57.08 | 3:11.45 | 17783 | 32152
3 | 7:08.53 | 3:12.32 | 32153 | 46584
4 | 10:21.10 | 3:34.03 | 46585 | 62637
5 | 13:55.13 | 4:00.27 | 62638 | 80664
6 | 17:55.40 | 4:28.50 | 80665 | 100814
7 | 22:24.15 | 4:37.25 | 100815 | 121614
8 | 27:01.40 | 3:41.18 | 121615 | 138207
9 | 30:42.58 | 3:28.35 | 138208 | 153842
10 | 34:11.18 | 3:38.27 | 153843 | 170219

Track 1

Filename C:\Exact Audio Copy\Judy Collins\Hard Times For Lovers\01. Hard Times For Lovers.wav

Pre-gap length 0:00:02.00

Peak level 95.1 %
Extraction speed 3.4 X
Track quality 99.9 %
Test CRC D78F3E79
Copy CRC D78F3E79
Accurately ripped (confidence 1) [607BBB06] (AR v2)
Copy OK

Track 2

Filename C:\Exact Audio Copy\Judy Collins\Hard Times For Lovers\02. Marie.wav

Pre-gap length 0:00:03.18

Peak level 58.2 %
Extraction speed 4.1 X
Track quality 100.0 %
Test CRC CA6E83E0
Copy CRC CA6E83E0
Accurately ripped (confidence 1) [E8A649FB] (AR v2)
Copy OK

Track 3

Filename C:\Exact Audio Copy\Judy Collins\Hard Times For Lovers\03. Happy End.wav

Pre-gap length 0:00:00.63

Peak level 86.5 %
Extraction speed 3.4 X
Track quality 99.7 %
Test CRC 859873CD
Copy CRC 859873CD
Accurately ripped (confidence 1) [84BF8F4F] (AR v2)
Copy OK

Track 4

Filename C:\Exact Audio Copy\Judy Collins\Hard Times For Lovers\04. Desperado.wav

Pre-gap length 0:00:03.22

Peak level 49.4 %
Extraction speed 4.5 X
Track quality 100.0 %
Test CRC 8ACAD6EC
Copy CRC 8ACAD6EC
Accurately ripped (confidence 1) [96C758F2] (AR v2)
Copy OK

Track 5

Filename C:\Exact Audio Copy\Judy Collins\Hard Times For Lovers\05. I Remember Sky.wav

Pre-gap length 0:00:00.08

Peak level 65.0 %
Extraction speed 4.7 X
Track quality 99.9 %
Test CRC AD6CCEEA
Copy CRC AD6CCEEA
Accurately ripped (confidence 1) [50AB9D6C] (AR v2)
Copy OK

Track 6

Filename C:\Exact Audio Copy\Judy Collins\Hard Times For Lovers\06. Starmaker.wav

Pre-gap length 0:00:03.30

Peak level 87.6 %
Extraction speed 5.0 X
Track quality 99.9 %
Test CRC 9CB86DDF
Copy CRC 9CB86DDF
Accurately ripped (confidence 1) [CD82D4A0] (AR v2)
Copy OK

Track 7

Filename C:\Exact Audio Copy\Judy Collins\Hard Times For Lovers\07. Dorothy.wav

Pre-gap length 0:00:01.45

Peak level 78.5 %
Extraction speed 5.7 X
Track quality 100.0 %
Test CRC 88808AEE
Copy CRC 88808AEE
Accurately ripped (confidence 1) [7194A9A2] (AR v1)
Copy OK

Track 8

Filename C:\Exact Audio Copy\Judy Collins\Hard Times For Lovers\08. I'll Never Say Goodbye (Theme From The Promise).wav

Pre-gap length 0:00:03.25

Peak level 78.5 %
Extraction speed 1.3 X
Track quality 99.9 %
Test CRC B1D7B2B3
Copy CRC B1D7B2B3
Accurately ripped (confidence 1) [76850397] (AR v1)
Copy OK

Track 9

Filename C:\Exact Audio Copy\Judy Collins\Hard Times For Lovers\09. Through The Eyes Of Love (Theme From Ice Castles).wav

Pre-gap length 0:00:03.20

Peak level 92.5 %
Extraction speed 6.3 X
Track quality 100.0 %
Test CRC 2DD9442E
Copy CRC 2DD9442E
Accurately ripped (confidence 1) [20223C31] (AR v2)
Copy OK

Track 10

Filename C:\Exact Audio Copy\Judy Collins\Hard Times For Lovers\10. Where Or When.wav

Pre-gap length 0:00:02.48

Peak level 65.6 %
Extraction speed 6.5 X
Track quality 100.0 %
Test CRC A626CE88
Copy CRC A626CE88
Accurately ripped (confidence 1) [26790513] (AR v2)
Copy OK

All tracks accurately ripped

No errors occurred

End of status report

==== Log checksum 234842B92C1D141518AF37A3A0A6AAA76B2ECE7516FD24421AE58C475C08A91F ====

Dynamic Range Meter log


foobar2000 1.3.9 / Dynamic Range Meter 1.1.1
log date: 2016-04-30 22:43:49

----------------------------------------
Analyzed: Judy Collins / Hard Times For Lovers
----------------------------------------

DR Peak RMS Duration Track
----------------------------------------
DR12 -0.43 dB -16.23 dB 3:57 01-Hard Times For Lovers
DR12 -4.70 dB -22.96 dB 3:12 02-Marie
DR14 -1.26 dB -20.46 dB 3:12 03-Happy End
DR12 -6.12 dB -23.20 dB 3:34 04-Desperado
DR14 -3.73 dB -24.56 dB 4:00 05-I Remember Sky
DR13 -1.14 dB -18.57 dB 4:29 06-Starmaker
DR13 -2.10 dB -20.04 dB 4:37 07-Dorothy
DR12 -2.09 dB -20.42 dB 3:41 08-I'll Never Say Goodbye (Theme From The Promise)
DR13 -0.67 dB -16.96 dB 3:28 09-Through The Eyes Of Love (Theme From Ice Castles)
DR11 -3.66 dB -20.10 dB 3:38 10-Where Or When
----------------------------------------

Number of tracks: 10
Official DR value: DR13

Samplerate: 44100 Hz
Channels: 2
Bits per sample: 16
Bitrate: 670 kbps
Codec: FLAC
================================================================================ password: BlondStyle
Download link:

Buy Premium To Support Me & Get Resumable Support & Max Speed:



Links are Interchangeable - No Password - Single Extraction
Direct Download

Tags: Collins, Lovers, Reissue

Comments
Name:*
E-Mail:*
Add Comments:
Enter Code: *