Download Now

Konchordat - Rise To The Order (2016)

Konchordat - Rise To The Order (2016)
EAC Rip | FLAC (Img) + Cue + Log ~ 516 Mb | MP3 CBR320 ~ 166 Mb
Scans Included (JPG, 300 dpi) | RAR 5% Recovery
Progressive Rock | Bad Elephant Music #BEM022

Konchordat hail from Kent in the UK. They are a progressive rock band in the 'English' tradition; their music has been described as "majestic and often epic in scale." On their debut album 'English Ghosts' the music is led by main stays Steve Cork (basses, keyboards), Lee Harding (voice, keyboards) and Stuart Martin (guitars, keyboards, vocals). Their second album - The New Crusade - saw a personnel change, with Stuart taking over lead vocal duties as well as guitar. The band describe their musical style as "PowerProg". Konchordat play epic music with an emotional heart, fused with a driving rock edge. Their the third album 'Rise To The Order' was released by Bad Elephant Music on April 29th 2016.

Track List:

01. Like A Heart Attack [09:31]
02. Nowhere Left To Go [08:33]
03. Save Me From The Rain [07:57]
04. My Energy [08:18]
05. Dream Forever [09:30]
06. Statement Of Intent [07:18]
07. Tired And Helpless [06:08]
08. Temple Of The Damned [06:58]

Personnel:

Stuart Martin - vocals, guitars
Neil Watts - keyboards, backing vocals
Steve Cork - bass
Neil Hayman - drums

EAC Log


Exact Audio Copy V1.1 from 23. June 2015

EAC extraction logfile from 29. April 2016, 21:56

Konchordat / Rise To The Order

Used drive : ASUS DRW-24B1LT Adapter: 1 ID: 2

Read mode : Secure
Utilize accurate stream : Yes
Defeat audio cache : Yes
Make use of C2 pointers : No

Read offset correction : 6
Overread into Lead-In and Lead-Out : No
Fill up missing offset samples with silence : Yes
Delete leading and trailing silent blocks : No
Null samples used in CRC calculations : Yes
Used interface : Native Win32 interface for Win NT & 2000

Used output format : User Defined Encoder
Selected bitrate : 1024 kBit/s
Quality : High
Add ID3 tag : Yes
Command line compressor : C:\Program Files (x86)\FLAC_1.3.1\win64\flac.exe
Additional command line options : -6 -V -T "ARTIST=%artist%" -T "TITLE=%title%" -T "ALBUM=%albumtitle%" -T "DATE=%year%" -T "TRACKNUMBER=%tracknr%" -T "GENRE=%genre%" -T "COMMENT=ripped by wurensh for rutracker.org" %source% -o %dest%

TOC of the extracted CD

Track | Start | Length | Start sector | End sector
-----------------------------
1 | 0:00.00 | 9:30.69 | 0 | 42818
2 | 9:30.69 | 8:32.46 | 42819 | 81264
3 | 18:03.40 | 7:56.71 | 81265 | 117035
4 | 26:00.36 | 8:17.49 | 117036 | 154359
5 | 34:18.10 | 9:29.42 | 154360 | 197076
6 | 43:47.52 | 7:17.28 | 197077 | 229879
7 | 51:05.05 | 6:07.25 | 229880 | 257429
8 | 57:12.30 | 6:57.35 | 257430 | 288739

Range status and errors

Selected range

Filename Y:\EAC\wurensh\Konchordat\Konchordat - Rise To The Order.wav

Peak level 99.3 %
Extraction speed 9.4 X
Range quality 99.9 %
Test CRC D13C7EFA
Copy CRC D13C7EFA
Copy OK

No errors occurred


AccurateRip summary

Track 1 not present in database
Track 2 not present in database
Track 3 not present in database
Track 4 not present in database
Track 5 not present in database
Track 6 not present in database
Track 7 not present in database
Track 8 not present in database

None of the tracks are present in the AccurateRip database

End of status report

-- CUETools DB Plugin V2.1.6

[CTDB TOCID: 8Lq8xPFaOxK9a2hpqNOU0fa6OUs-] found
Submit result: already submitted
Track | CTDB Status
1 | (1/1) Accurately ripped
2 | (1/1) Accurately ripped
3 | (1/1) Accurately ripped
4 | (1/1) Accurately ripped
5 | (1/1) Accurately ripped
6 | (1/1) Accurately ripped
7 | (1/1) Accurately ripped
8 | (1/1) Accurately ripped

==== Log checksum B929025732BCCCD4153F48B000219CAECCF870EF081757FDC641B2FDBC0DDBAB ====

DR Log


foobar2000 1.2.6 / Dynamic Range Meter 1.1.1
log date: 2016-05-01 00:22:58

----------------------------------------
Analyzed: Konchordat / Rise To The Order
----------------------------------------

DR Peak RMS Duration Track
----------------------------------------
DR6 -0.10 dB -7.61 dB 9:31 01-Like A Heart Attack
DR6 -0.10 dB -7.77 dB 8:33 02-Nowhere Left To Go
DR4 -0.11 dB -5.94 dB 7:57 03-Save Me From The Rain
DR6 -0.17 dB -7.72 dB 8:18 04-My Energy
DR6 -0.15 dB -8.01 dB 9:30 05-Dream Forever
DR6 -0.05 dB -7.19 dB 7:17 06-Statement Of Intent
DR6 -0.10 dB -8.27 dB 6:07 07-Tired And Helpless
DR6 -0.20 dB -6.88 dB 6:57 08-Temple Of The Damned
----------------------------------------

Number of tracks: 8
Official DR value: DR6

Samplerate: 44100 Hz
Channels: 2
Bits per sample: 16
Bitrate: 1045 kbps
Codec: FLAC
================================================================================

CUETools Log


[CUETools log; Date: 01.05.2016 0:22:47; Version: 2.1.5]
[CTDB TOCID: 8Lq8xPFaOxK9a2hpqNOU0fa6OUs-] found.
Track | CTDB Status
1 | (1/1) Accurately ripped
2 | (1/1) Accurately ripped
3 | (1/1) Accurately ripped
4 | (1/1) Accurately ripped
5 | (1/1) Accurately ripped
6 | (1/1) Accurately ripped
7 | (1/1) Accurately ripped
8 | (1/1) Accurately ripped
[AccurateRip ID: 0014e21f-00899edc-650f0908] disk not present in database.

Track Peak [ CRC32 ] [W/O NULL] [ LOG ]
- 99,3 [D13C7EFA] [EBBF67B2] CRC32
01 98,8 [3DE68015] [2FD81527]
02 98,8 [78D1AEF3] [7230E0A0]
03 98,6 [F1865C0E] [E60F0BDF]
04 98,0 [D854643F] [99CC0A83]
05 98,3 [91F29ECA] 7BCC4D3
06 99,3 [E070A178] [EACFE4EB]
07 98,8 [7B021742] [EA380239]
08 97,7 [71E21592] [173DDA5D]
Download link:

Buy Premium To Support Me & Get Resumable Support & Max Speed:



Links are Interchangeable - No Password - Single Extraction
Direct Download

Tags: Konchordat

Comments
Name:*
E-Mail:*
Add Comments:
Enter Code: *