Download Now

Thomas David Gibson - The Way She Change (2016)

Thomas David Gibson - The Way She Change (2016)
EAC Rip | FLAC (Img) + Cue + Log ~ 271 Mb | MP3 CBR320 ~ 93 Mb
Scans (JPG, 600 dpi) ~ 30 Mb | RAR 5% Recovery
Rock, Folk, Americana, Acoustic | © Thomas David Gibson #684758992659

Tom Gibson is an American musician and singer/songwriter originally from Springfield, MO. Though he started on guitar at an early age it wasn't until the age of 26 when the loss of his father to a brain tumor, and the dissolution of a long term relationship changed the direction of his life; pushing him toward songwriting. He has previously released one studio EP, the critically acclaimed, Nine Pound Hammer. The debut album introduced Gibson's raspy voice and somber lyrics to a larger audience. His follow-up LP, The Way She Change promises to expand greatly on his early work. Experimenting with new sounds and seamlessly blending different musical styles under the guise of an acoustic songwriter.

Track List:

01. The Way She Change [04:34]
02. House of Cards [02:37]
03. Soul Shine [03:24]
04. Let Me Sleep [03:17]
05. Despues de la Caida [00:20]
06. Mother [03:24]
07. Simple Life [04:21]
08. Out of Babylon [04:02]
09. Leaving Yesterday Behind [03:51]
10. Family [03:45]
11. On the Border [02:35]
12. Years Don't Lie [02:31]

EAC Log


Exact Audio Copy V1.0 beta 3 from 29. August 2011

Отчёт EAC об извлечении, выполненном 23. апреля 2016, 13:02

Tom Gibson / The Way She Change

Дисковод: PLEXTOR DVDR PX-880SA Adapter: 1 ID: 0

Режим чтения : Достоверность
Использование точного потока : Да
Отключение кэша аудио : Да
Использование указателей C2 : Нет

Коррекция смещения при чтении : 6
Способность читать области Lead-in и Lead-out : Нет
Заполнение пропущенных сэмплов тишиной : Да
Удаление блоков с тишиной в начале и конце : Нет
При вычислениях CRC использовались нулевые сэмплы : Да
Интерфейс : Установленный внешний ASPI-интерфейс

Выходной формат : Пользовательский кодировщик
Выбранный битрейт : 1024 kBit/s
Качество : Высокий
Добавление ID3-тега : Нет
Утилита сжатия : C:\Program Files\Exact Audio Copy\FLAC\FLAC.EXE
Дополнительные параметры : -8 -V -T "ARTIST=%artist%" -T "ALBUM=%albumtitle%" -T "DATE=%year%" -T "GENRE=%genre%" -T "COMMENT=ripped by izia1956" %source%

TOC извлечённого CD

Трек | Старт | Длительность | Начальный сектор | Конечный сектор
-----------------------------------
1 | 0:00.00 | 4:33.34 | 0 | 20508
2 | 4:33.34 | 2:36.45 | 20509 | 32253
3 | 7:10.04 | 3:23.72 | 32254 | 47550
4 | 10:34.01 | 3:16.01 | 47551 | 62251
5 | 13:50.02 | 0:19.23 | 62252 | 63699
6 | 14:09.25 | 3:23.41 | 63700 | 78965
7 | 17:32.66 | 4:20.53 | 78966 | 98518
8 | 21:53.44 | 4:01.03 | 98519 | 116596
9 | 25:54.47 | 3:50.55 | 116597 | 133901
10 | 29:45.27 | 3:44.26 | 133902 | 150727
11 | 33:29.53 | 2:34.39 | 150728 | 162316
12 | 36:04.17 | 2:30.10 | 162317 | 173576

Характеристики диапазона извлечения и сообщения об ошибках

Выбранный диапазон

Имя файла D:\BitComet\Thomas David Gibson (flac)\2016 - The Way She Change\Tom Gibson - The Way She Change.wav

Пиковый уровень 99.2 %
Скорость извлечения 2.7 X
Качество диапазона 99.9 %
CRC теста D9ABBB06
CRC копии D9ABBB06
Копирование... OK

Ошибок не произошло


AccurateRip: сводка

Трек 1 отсутствует в базе данных
Трек 2 отсутствует в базе данных
Трек 3 отсутствует в базе данных
Трек 4 отсутствует в базе данных
Трек 5 отсутствует в базе данных
Трек 6 отсутствует в базе данных
Трек 7 отсутствует в базе данных
Трек 8 отсутствует в базе данных
Трек 9 отсутствует в базе данных
Трек 10 отсутствует в базе данных
Трек 11 отсутствует в базе данных
Трек 12 отсутствует в базе данных

Ни одного трека нет в базе AccurateRip

Конец отчёта

==== Контрольная сумма отчёта 7706B428E86F44B03254A3C0AE277C352855F2508A562EBFC6F02B7D9544C4FF ====

DR Log


foobar2000 1.2.6 / Dynamic Range Meter 1.1.1
log date: 2016-05-01 00:20:20

----------------------------------------
Analyzed: Tom Gibson / The Way She Change
----------------------------------------

DR Peak RMS Duration Track
----------------------------------------
DR6 -0.14 dB -7.13 dB 4:33 01-The Way She Change
DR6 -0.15 dB -7.16 dB 2:37 02-House of Cards
DR6 -0.14 dB -7.24 dB 3:24 03-Soul Shine
DR6 -0.15 dB -7.24 dB 3:16 04-Let Me Sleep
DR13 -0.15 dB -15.23 dB 0:19 05-Despues de la Caida
DR5 -0.07 dB -6.53 dB 3:24 06-Mother
DR7 -0.14 dB -8.32 dB 4:21 07-Simple Life
DR7 -0.15 dB -9.23 dB 4:01 08-Out of Babylon
DR6 -0.14 dB -6.83 dB 3:51 09-Leaving Yesterday Behind
DR7 -0.15 dB -10.22 dB 3:44 10-Family
DR6 -0.13 dB -8.06 dB 2:35 11-On the Border
DR7 -0.15 dB -9.91 dB 2:30 12-Years Don't Lie
----------------------------------------

Number of tracks: 12
Official DR value: DR7

Samplerate: 44100 Hz
Channels: 2
Bits per sample: 16
Bitrate: 934 kbps
Codec: FLAC
================================================================================

CUETools Log


[CUETools log; Date: 01.05.2016 0:19:55; Version: 2.1.5]
[CTDB TOCID: 1xmNhmas4tUS.fZxzARhpOBb_WM-] disk not present in database.
[AccurateRip ID: 00116888-00a1f149-92090a0c] disk not present in database.

Track Peak [ CRC32 ] [W/O NULL] [ LOG ]
- 99,2 [D9ABBB06] [79B65082] CRC32
01 98,3 [74E717D7] FE717E5
02 98,2 [4243376B] [16192810]
03 98,4 [90E3BE50] [F5522F86]
04 98,2 [0D17592A] [565B24AD]
05 98,2 [D7937741] [3DD48F18]
06 99,2 [45CB6EF9] [225315AF]
07 98,4 [F364763A] [3D12B97F]
08 98,2 [7023EBDC] [EC090081]
09 98,4 [2641AC09] [02C08FA1]
10 98,2 [554EDBC2] [6949C7C1]
11 98,4 [52946491] [DD894EBF]
12 98,3 [DF74B4DF] [C979B9D8]
Download link:

Buy Premium To Support Me & Get Resumable Support & Max Speed:



Links are Interchangeable - No Password - Single Extraction
Direct Download

Tags: Thomas, Gibson, Change

Comments
Name:*
E-Mail:*
Add Comments:
Enter Code: *