Download Now

Dave Brubeck Quartet - Jazzwoche Burghausen 2001 (2015) [HDTV]

Dave Brubeck Quartet - Jazzwoche Burghausen 2001 (2015)
HDTV | MKV | 1432 kbps, 688x520 (4:3) at 25.000 fps, AVC | 448 kbps, 48 kHz, 2 channels, AC-3
Jazz | Length: 01:34:00 | 1.24 GB

David Warren "Dave" Brubeck (December 6, 1920 - December 5, 2012) was an American jazz pianist and composer, considered to be one of the foremost exponents of cool jazz. He wrote a number of jazz standards, including "In Your Own Sweet Way" and "The Duke". Brubeck's style ranged from refined to bombastic, reflecting his mother's attempts at classical training and his improvisational skills. His music is known for employing unusual time signatures, and superimposing contrasting rhythms, meters, and tonalities.



Dave Brubeck Quartet - Jazzwoche Burghausen 2001 (2015) [HDTV]
Dave Brubeck Quartet - Jazzwoche Burghausen 2001 (2015) [HDTV]
Dave Brubeck Quartet - Jazzwoche Burghausen 2001 (2015) [HDTV]
Dave Brubeck Quartet - Jazzwoche Burghausen 2001 (2015) [HDTV]
Dave Brubeck Quartet - Jazzwoche Burghausen 2001 (2015) [HDTV]
Dave Brubeck Quartet - Jazzwoche Burghausen 2001 (2015) [HDTV]


Tracklist
01. Theme for June
02. Broadway Bossa Nova
03. The Crossing
04. All My Love
05. Why Not / Porqu No
06. Oh You Can Run
07. In Your Own Sweet Way
08. Take Five
09. Unsquare Dance
10. Take the A-Train

MediaInfo


General
Unique ID : 239684289498695375866036605536742964589 (0xB45183D94C940F3DB15AC8D5B2087D6D)
Complete name : C:\Users\ggu\Desktop\ggu\Dave_Brubeck_Quartet-Live_At_32nd_Internationale_Jazzwoche_Burghausen_(2001)-x264-2016-gFViD\dave_brubeck_quartet-live_at_32nd_internationale_jazzwoche_burghausen_(2001)-x264-2016.mkv
Format : Matroska
Format version : Version 4 / Version 2
File size : 1.24 GiB
Duration : 1h 34mn
Overall bit rate : 1 882 Kbps
Encoded date : UTC 2016-04-25 19:31:33
Writing application : mkvmerge v9.0.1 ('Obstacles') 32bit
Writing library : libebml v1.3.3 + libmatroska v1.4.4

Video
ID : 2
Format : AVC
Format/Info : Advanced Video Codec
Format profile : [email protected]
Format settings, CABAC : Yes
Format settings, ReFrames : 5 frames
Codec ID : V_MPEG4/ISO/AVC
Duration : 1h 34mn
Bit rate : 1 432 Kbps
Width : 688 pixels
Height : 520 pixels
Display aspect ratio : 4:3
Frame rate mode : Constant
Frame rate : 25.000 fps
Color space : YUV
Chroma subsampling : 4:2:0
Bit depth : 8 bits
Scan type : Progressive
Bits/(Pixel*Frame) : 0.160
Stream size : 963 MiB (76%)
Writing library : x264 core 148 r2694 3b70645
Encoding settings : cabac=1 / ref=5 / deblock=1:0:0 / analyse=0x1:0x111 / me=umh / subme=9 / psy=1 / psy_rd=1.00:0.00 / mixed_ref=1 / me_range=24 / chroma_me=1 / trellis=1 / 8x8dct=0 / cqm=0 / deadzone=21,11 / fast_pskip=1 / chroma_qp_offset=-2 / threads=9 / lookahead_threads=2 / sliced_threads=0 / nr=0 / decimate=1 / interlaced=0 / bluray_compat=0 / constrained_intra=0 / bframes=16 / b_pyramid=2 / b_adapt=2 / b_bias=0 / direct=3 / weightb=1 / open_gop=0 / weightp=2 / keyint=250 / keyint_min=25 / scenecut=40 / intra_refresh=0 / rc_lookahead=50 / rc=crf / mbtree=1 / crf=21.0 / qcomp=0.60 / qpmin=0 / qpmax=69 / qpstep=4 / ip_ratio=1.40 / aq=1:1.00
Language : English
Default : Yes
Forced : No

Audio
ID : 1
Format : AC-3
Format/Info : Audio Coding 3
Mode extension : CM (complete main)
Format settings, Endianness : Big
Codec ID : A_AC3
Duration : 1h 34mn
Bit rate mode : Constant
Bit rate : 448 Kbps
Channel(s) : 2 channels
Channel positions : Front: L R
Sampling rate : 48.0 KHz
Frame rate : 31.250 fps (1536 spf)
Compression mode : Lossy
Stream size : 301 MiB (24%)
Default : Yes
Forced : No

Menu
00:00:00.000 : :Kapitel 01
00:10:56.000 : :Kapitel 02
00:20:14.000 : :Kapitel 03
00:32:03.000 : :Kapitel 04
00:38:00.000 : :Kapitel 05
00:46:30.000 : :Kapitel 06
00:58:01.000 : :Kapitel 07
01:06:29.000 : :Kapitel 08
01:21:30.000 : :Kapitel 09
01:26:52.000 : :Kapitel 10

Thanks to the original uploader
Buy Premium Account To Get Resumable Support & Max Speed

DOWNLOAD LINK


Links are Interchangeable - Single Extraction - Premium is support resumable
Direct Download

Tags: Brubeck, Quartet, Jazzwoche, Burghausen

Comments
Name:*
E-Mail:*
Add Comments:
Enter Code: *