Download Now

Too Slim And The Taildraggers - Tales Of Sin And Redemption (2003) {Repost, New Rip}

Too Slim And The Taildraggers - Tales Of Sin And Redemption (2003)
EAC Rip | FLAC (Img) + Cue + Log ~ 384 Mb | MP3 CBR320 ~ 125 Mb
Scans (JPG, 600 dpi) ~ 48 Mb | RAR 5% Recovery
Modern Electric Blues, Blues Rock | VU Records #VCD-0001-2

With albums such as El Rauncho Grundgé, King Size Troublemakers, and Rock 'em Dead already in their catalog, it would seem that Spokane's most revered blues-roots rockers would have more sin than redemption on their minds. But this disc's title accurately describes its contents, which find guitarist/vocalist Tim "Too Slim" Langford dipping into both concepts with equal ferocity. His sly, whiskey-tinged vocals and lyrical yet blunt guitar can't help but be compared to early, pre-MTV fame ZZ Top, especially when he's getting lecherous on "Oven Burning Woman"...

Track List:

01. Walk On Water [04:33]
02. Brown Bottle Rock [03:35]
03. Oven Burnin' Woman [03:58]
04. Mississippi Moon [05:19]
05. Wish I Was Fishin' [06:26]
06. Soul Perspective [04:26]
07. Some Kina' Woman [03:33]
08. Broad Mindeo [05:08]
09. Missed That Train [04:31]
10. Flatback Flathead [04:36]
11. Too Cool [05:53]

EAC Log


Exact Audio Copy V1.0 beta 3 from 29. August 2011

Отчёт EAC об извлечении, выполненном 14. марта 2016, 17:51

Too Slim and The Taildraggers / Tales Of Sin And Redemption

Дисковод: ATAPI iHAS424 A Adapter: 0 ID: 0

Режим чтения : Достоверность
Использование точного потока : Да
Отключение кэша аудио : Да
Использование указателей C2 : Нет

Коррекция смещения при чтении : 6
Способность читать области Lead-in и Lead-out : Нет
Заполнение пропущенных сэмплов тишиной : Да
Удаление блоков с тишиной в начале и конце : Нет
При вычислениях CRC использовались нулевые сэмплы : Да
Интерфейс : Установленный внешний ASPI-интерфейс

Выходной формат : Пользовательский кодировщик
Выбранный битрейт : 1024 kBit/s
Качество : Высокий
Добавление ID3-тега : Нет
Утилита сжатия : C:\Program Files\Exact Audio Copy\FLAC\FLAC.EXE
Дополнительные параметры : -8 -V -T "ARTIST=%artist%" -T "ALBUM=%albumtitle%" -T "DATE=%year%" -T "GENRE=%genre%" -T "COMMENT=ripped by izia1956" %source%

TOC извлечённого CD

Трек | Старт | Длительность | Начальный сектор | Конечный сектор
-----------------------------------
1 | 0:00.00 | 4:32.22 | 0 | 20421
2 | 4:32.22 | 3:34.61 | 20422 | 36532
3 | 8:07.08 | 3:57.39 | 36533 | 54346
4 | 12:04.47 | 5:18.16 | 54347 | 78212
5 | 17:22.63 | 6:25.63 | 78213 | 107150
6 | 23:48.51 | 4:25.08 | 107151 | 127033
7 | 28:13.59 | 3:32.59 | 127034 | 142992
8 | 31:46.43 | 5:07.10 | 142993 | 166027
9 | 36:53.53 | 4:30.20 | 166028 | 186297
10 | 41:23.73 | 4:35.34 | 186298 | 206956
11 | 45:59.32 | 5:52.72 | 206957 | 233428

Характеристики диапазона извлечения и сообщения об ошибках

Выбранный диапазон

Имя файла D:\BitComet\Too Slim & the Taildraggers\2003 - Tales Of Sin And Redemption\Too Slim and The Taildraggers - Tales Of Sin And Redemption.wav

Пиковый уровень 100.0 %
Скорость извлечения 5.7 X
Качество диапазона 100.0 %
CRC теста E83BC3C4
CRC копии E83BC3C4
Копирование... OK

Ошибок не произошло


AccurateRip: сводка

Трек 1 : извлечено точно (доверие 4) [7E95D4D1] (AR v2)
Трек 2 : извлечено точно (доверие 4) [95970C32] (AR v2)
Трек 3 : извлечено точно (доверие 4) [AD5A2E34] (AR v2)
Трек 4 : извлечено точно (доверие 4) [613892C7] (AR v2)
Трек 5 : извлечено точно (доверие 4) [4BAEFE69] (AR v2)
Трек 6 : извлечено точно (доверие 4) [90EE8FE9] (AR v2)
Трек 7 : извлечено точно (доверие 4) [7E5CA26F] (AR v2)
Трек 8 : извлечено точно (доверие 4) [6E162CF2] (AR v2)
Трек 9 : извлечено точно (доверие 4) [FD2BF07B] (AR v2)
Трек 10 : извлечено точно (доверие 4) [585BE92F] (AR v2)
Трек 11 : извлечено точно (доверие 4) [7304D069] (AR v2)

Все треки извлечены точно

Конец отчёта

==== Контрольная сумма отчёта 5D91DC7007311873F920744F5C93D3D69E941A6BE2284278C9603BBD758B6AC0 ====

DR Log


foobar2000 1.2.6 / Dynamic Range Meter 1.1.1
log date: 2016-04-19 14:29:03

----------------------------------------
Analyzed: Too Slim and The Taildraggers / Tales Of Sin And Redemption
----------------------------------------

DR Peak RMS Duration Track
----------------------------------------
DR5 0.00 dB -6.37 dB 4:32 01-Walk On Water
DR7 0.00 dB -8.18 dB 3:35 02-Brown Bottle Rock
DR7 0.00 dB -7.48 dB 3:58 03-Oven Burnin' Woman
DR7 0.00 dB -8.65 dB 5:18 04-Mississippi Moon
DR8 0.00 dB -8.94 dB 6:26 05-Wish I Was Fishin'
DR5 0.00 dB -6.32 dB 4:25 06-Soul Perspective
DR7 0.00 dB -7.57 dB 3:33 07-Some Kina' Woman
DR9 0.00 dB -10.22 dB 5:07 08-Broad Mindeo
DR6 0.00 dB -7.35 dB 4:30 09-Missed That Train
DR6 0.00 dB -7.44 dB 4:35 10-Flatback Flathead
DR12 0.00 dB -13.78 dB 5:53 11-Too Cool
----------------------------------------

Number of tracks: 11
Official DR value: DR7

Samplerate: 44100 Hz
Channels: 2
Bits per sample: 16
Bitrate: 986 kbps
Codec: FLAC
================================================================================

CUETools Log


[CUETools log; Date: 19.04.2016 14:29:00; Version: 2.1.5]
[CTDB TOCID: .A1EldrS1fqelvBG5xHB1eLn9.k-] found.
Track | CTDB Status
1 | (2/2) Accurately ripped
2 | (2/2) Accurately ripped
3 | (2/2) Accurately ripped
4 | (2/2) Accurately ripped
5 | (2/2) Accurately ripped
6 | (2/2) Accurately ripped
7 | (2/2) Accurately ripped
8 | (1/2) Accurately ripped, or (1/2) differs in 734 samples @03:13:28,03:13:44,03:13:60,03:14:32-03:14:33,03:14:48-03:14:49,03:15:05,03:15:37,03:24:12-03:24:13,03:24:28,03:24:44,03:26:21,03:26:37,03:26:53,03:31:12,03:31:59-03:31:60,03:34:73,03:35:14
9 | (2/2) Accurately ripped
10 | (2/2) Accurately ripped
11 | (2/2) Accurately ripped
[AccurateRip ID: 0014be2d-00b51ec4-980c280b] found.
Track [ CRC | V2 ] Status
01 [3898c6de|7e95d4d1] (2+5/7) Accurately ripped
02 [6803a626|95970c32] (2+5/7) Accurately ripped
03 [4131c12d|ad5a2e34] (2+5/7) Accurately ripped
04 [32596329|613892c7] (2+5/7) Accurately ripped
05 [a2c245a3|4baefe69] (2+5/7) Accurately ripped
06 [c858c86f|90ee8fe9] (2+5/7) Accurately ripped
07 c9b2a4b|7e5ca26f (2+5/7) Accurately ripped
08 [04a46b99|6e162cf2] (2+5/7) Accurately ripped
09 f7677af|fd2bf07b (2+5/7) Accurately ripped
10 [092bed4c|585be92f] (2+5/7) Accurately ripped
11 [5a7a5ca6|7304d069] (2+5/7) Accurately ripped

Track Peak [ CRC32 ] [W/O NULL] [ LOG ]
- 100,0 [E83BC3C4] [ED5D6F02] CRC32
01 100,0 [DF42EE3E] [FA7DEE68]
02 100,0 [F04100EC] [FF5CE14A]
03 100,0 [37A44014] [56F43F5E]
04 100,0 [32A1CEBE] [91F1BCAE]
05 100,0 [0EC5A796] [8C961C4F]
06 100,0 [61270E02] [721DBA48]
07 100,0 [CD6D2ED8] [AE20F133]
08 100,0 [5D507150] [DB654C97]
09 100,0 [01D026C3] [F7BECCAD]
10 100,0 [7E4271C7] [2144DFFC]
11 100,0 [9E36169D] [963C4305]
Download link:

Buy Premium To Support Me & Get Resumable Support & Max Speed:



Links are Interchangeable - No Password - Single Extraction
Direct Download

Tags: Taildraggers, Redemption, Repost

Comments
Name:*
E-Mail:*
Add Comments:
Enter Code: *