Download Now

Al Kooper - Easy Does It + New York City (You're A Woman) + A Possible Projection Of The Future - Childhood's End (2010) 2CD

Al Kooper - Easy Does It (1970); New York City (You're A Woman) (1971);
A Possible Projection Of The Future - Childhood's End (1972) 3 LP in 2 CD, 2010

EAC | FLAC | Image (Cue&Log) ~ 984 Mb (incl 5%) | Mp3 (CBR320) ~ 360 Mb (incl 5%) | Scans ~ 54 Mb
Genre: Singer/Songwriter, Blues Rock, R&B, Pop Rock | Label: Raven | # RVCD-318 | Time: 02:25:36

Raven presents, on a great value Double CD, three landmark albums by legendary multi-instrumentalist, producer and solo artist Al Kooper. Few American musicians have pursued a more diverse or fascinating career than Kooper. As well as having played organ on Bob Dylan's timeless 'Like a Rolling Stone', formed Blood Sweat & Tears and produced Lynyrd Skynyrd, Kooper has issued more than a dozen solo albums and continues to record. Easy Does It (1970), New York City (You're a Woman) (1971) and A Possible Projection of the Future (1972) were his 5th, 6th and 7th albums recorded for Columbia and incorporate soul, pop, country and jazz elements with seamless ease. All showcase Kooper's incredible musicianship at its creative and innovative peak. Also features a stellar cast of session musicians including Herbie Flowers, Joe Beck, Rick Marotta, Carol Kaye, Sneaky Pete Kleinow, Rita Coolidge etc.

Tracklist:

CD1:

Easy Does It (1970):

01. Brand New Day (05:11)
02. Piano Solo Introduction (02:00)
03. I Got Woman (04:31)
04. Country Road (04:23)
05. I Bought You The Shoes (01:59)
06. Introduction (00:50)
07. Easy Does It (05:28)
08. Buckskin Boy (03:10)
09. Love Theme From 'The Lanlord' (03:13)
10. Sad, Sad Sunshine (05:06)
11. Let The Dutchess Know (03:19)
12. She Get's Me Where I Live (03:35)
13. A Rose And A Baby Ruth (03:31)
14. Baby, Please Don't Go (12:28)
15. God Sheds His Grace On Thee (03:28)

New York City (You're A Woman) (1971):

16. New York City (You're A Woman) (05:21)
17. John the Baptist (Holy John) (03:35)
18. Can You Hear It Now (500 Miles) (03:27)

CD2:

New York City (You're A Woman) (1971) cont.:

01. The Ballad Of The Hard Rock Kid (04:20)
02. Going Quietly Mad (03:54)
03. Medley: OO Wee Baby, I LOve You/Love Is A Man's Be (04:22)
04. Back On My Feet (03:20)
05. Come Down In Time (04:39)
06. Dearest Darling (03:55)
07. Nightmare # 5 (03:00)
08. The Warning (Someone's On The Cross Again) (03:01)

A Possible Projection Of The Future - Childhood's End (1972):

09. A Possible Projection Of The Future (06:29)
10. The Man In Me (03:43)
11. Fly On (03:15)
12. Please Tell Me Why (04:37)
13. The Monkey Time (03:20)
14. Let Your Love Shine (04:05)
15. Swept For You Baby (03:32)
16. Bended Knees (Please Don't Leave Me Now) (03:42)
17. Love Trap (04:04)
18. Childhood's End (03:28)


EAC log CD1


Exact Audio Copy V1.1 from 23. June 2015

Отчёт EAC об извлечении, выполненном 15. апреля 2016, 21:36

Al Kooper / Easy Does It

Дисковод: ASUS DRW-24B3ST Adapter: 0 ID: 0

Режим чтения : Достоверность
Использование точного потока : Да
Отключение кэша аудио : Да
Использование указателей C2 : Нет

Коррекция смещения при чтении : 6
Способность читать области Lead-in и Lead-out : Нет
Заполнение пропущенных сэмплов тишиной : Да
Удаление блоков с тишиной в начале и конце : Нет
При вычислениях CRC использовались нулевые сэмплы : Да
Интерфейс : Установленный внешний ASPI-интерфейс

Выходной формат : Пользовательский кодировщик
Выбранный битрейт : 1024 kBit/s
Качество : Высокий
Добавление ID3-тега : Нет
Утилита сжатия : C:\Program Files (x86)\Exact Audio Copy\FLAC\FLAC.EXE
Дополнительные параметры : -6 -V -T "ARTIST=%artist%" -T "TITLE=%title%" -T "ALBUM=%albumtitle%" -T "DATE=%year%" -T "TRACKNUMBER=%tracknr%" -T "GENRE=%genre%" -T "COMMENT=%comment%" -T "BAND=%albuminterpret%" -T "ALBUMARTIST=%albuminterpret%" -T "COMPOSER=%composer%" %haslyrics%-tag-from-file=LYRICS="%lyricsfile%"%haslyrics% -T "DISCNUMBER=%cdnumber%" -T "TOTALDISCS=%totalcds%" -T "TOTALTRACKS=%numtracks%" %hascover%-picture="%coverfile%"%hascover% %source% -o %dest%

TOC извлечённого CD

Трек | Старт | Длительность | Начальный сектор | Конечный сектор
-----------------------------------
1 | 0:00.00 | 5:11.47 | 0 | 23371
2 | 5:11.47 | 2:00.32 | 23372 | 32403
3 | 7:12.04 | 4:31.74 | 32404 | 52802
4 | 11:44.03 | 4:23.45 | 52803 | 72572
5 | 16:07.48 | 1:59.42 | 72573 | 81539
6 | 18:07.15 | 0:50.30 | 81540 | 85319
7 | 18:57.45 | 5:28.02 | 85320 | 109921
8 | 24:25.47 | 3:10.06 | 109922 | 124177
9 | 27:35.53 | 3:13.26 | 124178 | 138678
10 | 30:49.04 | 5:06.57 | 138679 | 161685
11 | 35:55.61 | 3:19.18 | 161686 | 176628
12 | 39:15.04 | 3:35.45 | 176629 | 192798
13 | 42:50.49 | 3:31.20 | 192799 | 208643
14 | 46:21.69 | 12:28.12 | 208644 | 264755
15 | 58:50.06 | 3:28.69 | 264756 | 280424
16 | 62:19.00 | 5:21.01 | 280425 | 304500
17 | 67:40.01 | 3:35.02 | 304501 | 320627
18 | 71:15.03 | 3:27.64 | 320628 | 336216

Характеристики диапазона извлечения и сообщения об ошибках

Выбранный диапазон

Имя файла C:\Torrents - my\Al Kooper - 1970-72 (2010) - Easy Does It - New York City (You're A Woman) - A Possible Projection Of The Future (Childhood's End)\1970-71 - Easy Does It - New York City (You're A Woman)\Al Kooper - Easy Does It.wav

Пиковый уровень 100.0 %
Скорость извлечения 9.8 X
Качество диапазона 100.0 %
CRC теста 2B250D48
CRC копии 2B250D48
Копирование... OK

Ошибок не произошло

Конец отчёта

==== Контрольная сумма отчёта 2BE4BF18537FA17325CE825F2727004596D45685089BACC952AB7B605ABDD726 ====

DR log CD1


foobar2000 1.2 / Dynamic Range Meter 1.1.1
log date: 2016-04-19 14:18:05

----------------------------------------
Analyzed: Al Kooper / Easy Does It
----------------------------------------

DR Peak RMS Duration Track
----------------------------------------
DR7 0.00 dB -8.69 dB 5:12 01-Brand New Day
DR9 -1.19 dB -14.32 dB 2:00 02-Piano Solo Introduction
DR8 -0.19 dB -11.23 dB 4:32 03-I Got Woman
DR8 0.00 dB -10.01 dB 4:24 04-Country Road
DR8 0.00 dB -9.48 dB 2:00 05-I Bought You The Shoes
DR14 -0.61 dB -21.83 dB 0:50 06-Introduction
DR8 0.00 dB -10.00 dB 5:28 07-Easy Does It
DR8 0.00 dB -9.69 dB 3:10 08-Buckskin Boy
DR8 -0.23 dB -10.57 dB 3:13 09-Love Theme From 'The Lanlord'
DR8 0.00 dB -10.26 dB 5:07 10-Sad, Sad Sunshine
DR7 -0.06 dB -9.27 dB 3:19 11-Let The Dutchess Know
DR8 0.00 dB -9.77 dB 3:36 12-She Get's Me Where I Live
DR8 0.00 dB -10.11 dB 3:31 13-A Rose And A Baby Ruth
DR8 -0.06 dB -10.34 dB 12:28 14-Baby, Please Don't Go
DR8 0.00 dB -11.47 dB 3:29 15-God Sheds His Grace On Thee
DR9 0.00 dB -10.47 dB 5:21 16-New York City (You're A Woman)
DR8 0.00 dB -9.96 dB 3:35 17-John the Baptist (Holy John)
DR9 0.00 dB -10.86 dB 3:28 18-Can You Hear It Now (500 Miles)
----------------------------------------

Number of tracks: 18
Official DR value: DR8

Samplerate: 44100 Hz
Channels: 2
Bits per sample: 16
Bitrate: 931 kbps
Codec: FLAC
================================================================================

EAC log CD2


Exact Audio Copy V1.1 from 23. June 2015

Отчёт EAC об извлечении, выполненном 17. апреля 2016, 21:57

Al Kooper / New York (You're A Woman)/Possible Projection Of The Future - Childhood's End

Дисковод: hp CDDVDW SU-208CB Adapter: 0 ID: 0

Режим чтения : Достоверность
Использование точного потока : Да
Отключение кэша аудио : Да
Использование указателей C2 : Нет

Коррекция смещения при чтении : 6
Способность читать области Lead-in и Lead-out : Нет
Заполнение пропущенных сэмплов тишиной : Да
Удаление блоков с тишиной в начале и конце : Нет
При вычислениях CRC использовались нулевые сэмплы : Да
Интерфейс : Установленный внешний ASPI-интерфейс

Выходной формат : Пользовательский кодировщик
Выбранный битрейт : 1024 kBit/s
Качество : Высокий
Добавление ID3-тега : Нет
Утилита сжатия : C:\Program Files (x86)\Exact Audio Copy\Flac\flac.exe
Дополнительные параметры : -V -8 -T "Date=%year%" -T "Genre=%genre%" %source%

TOC извлечённого CD

Трек | Старт | Длительность | Начальный сектор | Конечный сектор
-----------------------------------
1 | 0:00.00 | 4:20.01 | 0 | 19500
2 | 4:20.01 | 3:54.24 | 19501 | 37074
3 | 8:14.25 | 4:22.54 | 37075 | 56778
4 | 12:37.04 | 3:20.21 | 56779 | 71799
5 | 15:57.25 | 4:39.47 | 71800 | 92771
6 | 20:36.72 | 3:55.06 | 92772 | 110402
7 | 24:32.03 | 3:00.52 | 110403 | 123954
8 | 27:32.55 | 3:01.23 | 123955 | 137552
9 | 30:34.03 | 6:29.71 | 137553 | 166798
10 | 37:03.74 | 3:43.32 | 166799 | 183555
11 | 40:47.31 | 3:15.20 | 183556 | 198200
12 | 44:02.51 | 4:37.31 | 198201 | 219006
13 | 48:40.07 | 3:20.02 | 219007 | 234008
14 | 52:00.09 | 4:05.67 | 234009 | 252450
15 | 56:06.01 | 3:32.74 | 252451 | 268424
16 | 59:39.00 | 3:42.00 | 268425 | 285074
17 | 63:21.00 | 4:04.08 | 285075 | 303382
18 | 67:25.08 | 3:28.53 | 303383 | 319035

Характеристики диапазона извлечения и сообщения об ошибках

Выбранный диапазон

Имя файла C:\Users\Пользователь\Music\1971-72 - New York City (You're A Woman) - A Possible Projection Of The Future (Childhood's End)\Al Kooper - New York (You're A Woman),Possible Projection Of The Future - Childhood's End.wav

Пиковый уровень 100.0 %
Скорость извлечения 4.4 X
Качество диапазона 100.0 %
CRC теста 5AAEE3FC
CRC копии 5AAEE3FC
Копирование... OK

Ошибок не произошло


AccurateRip: сводка

Трек 1 : извлечено точно (доверие 1) [01B596C4] (AR v2)
Трек 2 : извлечено точно (доверие 1) [9A7C1253] (AR v2)
Трек 3 : извлечено точно (доверие 1) [4BD69697] (AR v2)
Трек 4 : извлечено точно (доверие 1) 0B44537 (AR v2)
Трек 5 : извлечено точно (доверие 1) [8F944822] (AR v2)
Трек 6 : извлечено точно (доверие 1) [75523037] (AR v2)
Трек 7 : извлечено точно (доверие 1) [61DD6BF9] (AR v2)
Трек 8 : извлечено точно (доверие 1) [6F0F24AE] (AR v2)
Трек 9 : извлечено точно (доверие 1) [15FB35CD] (AR v2)
Трек 10 : извлечено точно (доверие 1) [C5334EE4] (AR v2)
Трек 11 : извлечено точно (доверие 1) [24EA802D] (AR v2)
Трек 12 : извлечено точно (доверие 1) [93CC6F3B] (AR v2)
Трек 13 : извлечено точно (доверие 1) [1D238A37] (AR v2)
Трек 14 : извлечено точно (доверие 1) [3E99F431] (AR v2)
Трек 15 : извлечено точно (доверие 1) [DBD4ED3E] (AR v2)
Трек 16 : извлечено точно (доверие 1) [2FAFEEF5] (AR v2)
Трек 17 : извлечено точно (доверие 1) [0186DB34] (AR v2)
Трек 18 : извлечено точно (доверие 1) [2E92E124] (AR v2)

Все треки извлечены точно

Конец отчёта

==== Контрольная сумма отчёта CDA4108856866019CE0C0C6E7472E898FC59E794206D2B84B576046C8EAA9431 ====

DR log CD2


foobar2000 1.2 / Dynamic Range Meter 1.1.1
log date: 2016-04-19 14:18:25

----------------------------------------
Analyzed: Al Kooper / New York (You're A Woman)/Possible Projection Of The Future - Childhood's End
----------------------------------------

DR Peak RMS Duration Track
----------------------------------------
DR8 0.00 dB -10.04 dB 4:20 01-The Ballad Of The Hard Rock Kid
DR9 0.00 dB -10.75 dB 3:54 02-Going Quietly Mad
DR9 0.00 dB -10.61 dB 4:23 03-Medley: OO Wee Baby, I LOve You/Love Is A Man's Be
DR8 0.00 dB -9.58 dB 3:20 04-Back On My Feet
DR9 0.00 dB -11.57 dB 4:40 05-Come Down In Time
DR8 0.00 dB -10.00 dB 3:55 06-Dearest Darling
DR10 -0.20 dB -11.47 dB 3:01 07-Nightmare # 5
DR8 -1.00 dB -10.45 dB 3:01 08-The Warning (Someone's On The Cross Again)
DR10 0.00 dB -13.36 dB 6:30 09-A Possible Projection Of The Future
DR9 0.00 dB -13.18 dB 3:43 10-The Man In Me
DR8 0.00 dB -9.84 dB 3:15 11-Fly On
DR9 -0.14 dB -12.93 dB 4:37 12-Please Tell Me Why
DR10 0.00 dB -12.32 dB 3:20 13-The Monkey Time
DR10 0.00 dB -11.97 dB 4:06 14-Let Your Love Shine
DR9 0.00 dB -11.67 dB 3:33 15-Swept For You Baby
DR8 0.00 dB -10.68 dB 3:42 16-Bended Knees (Please Don't Leave Me Now)
DR9 0.00 dB -10.29 dB 4:04 17-Love Trap
DR8 0.00 dB -11.50 dB 3:29 18-Childhood's End
----------------------------------------

Number of tracks: 18
Official DR value: DR9

Samplerate: 44100 Hz
Channels: 2
Bits per sample: 16
Bitrate: 840 kbps
Codec: FLAC
================================================================================


Password: designol
Download link:

Buy Premium To Support Me & Get Resumable Support & Max Speed:



Links are Interchangeable - No Password - Single Extraction
Direct Download

Tags: Kooper, Possible, Projection, Future, Childhood

Comments
Name:*
E-Mail:*
Add Comments:
Enter Code: *