Download Now

Tom Jones - Long Lost Suitcase (2015)

Tom Jones - Long Lost Suitcase (2015)
EAC Rip | FLAC (Img) + Cue + Log ~ 263 Mb
Scans (PNG, 300 dpi) ~ 19 Mb | RAR 5% Recovery
Pop Rock, Country, Folk, Blues, Blue-Eyed Soul | Seconds Out Productions/Virgin EMI Records #4753343

Tom Jones has always been better than the average music snob has been willing to acknowledge. Even when he was making his living as the greatest of all Las Vegas lounge lizards, he had craft, passion, and a desire to deliver for his audience that put his peers to shame. At the age of 75, he's not only singing with all the force, power, and authority he commanded in the '60s and '70s, but he's making the best and most ambitious recordings of his career. Long Lost Suitcase is Jones' third project with producer Ethan Johns, and like 2010's Praise & Blame and 2012's Spirit in the Room, it finds Jones digging into rootsy sounds that give him a chance to indulge his passion for blues, vintage gospel, and R&B...

Track List:

01. Opportunity To Cry [02:44]
02. Honey, Honey (feat. Imelda May) [02:24]
03. Take My Love (I Want To Give It) [03:03]
04. Bring It On Home [03:16]
05. Everybody Loves A Train [04:29]
06. Elvis Presley Blues [03:15]
07. He Was A Friend Of Mine [03:19]
08. Factory Girl [02:33]
09. I Wish You Would [04:14]
10. 'Til My Back Ain't Got No Bone [04:52]
11. Why Don't You Love Me Like You Used To Do? [01:50]
12. Tomorrow Night [03:07]
13. Raise A Ruckus [03:16]

EAC Log


Exact Audio Copy V1.1 from 23. June 2015

EAC extraction logfile from 9. October 2015, 20:37

Tom Jones / Long Lost Suitcase

Used drive : hp CDDVDW SH-216DB Adapter: 1 ID: 0

Read mode : Secure
Utilize accurate stream : Yes
Defeat audio cache : Yes
Make use of C2 pointers : No

Read offset correction : 6
Overread into Lead-In and Lead-Out : No
Fill up missing offset samples with silence : Yes
Delete leading and trailing silent blocks : No
Null samples used in CRC calculations : Yes
Used interface : Native Win32 interface for Win NT & 2000

Used output format : Internal WAV Routines
Sample format : 44.100 Hz; 16 Bit; Stereo

TOC of the extracted CD

Track | Start | Length | Start sector | End sector
-----------------------------
1 | 0:00.00 | 2:43.48 | 0 | 12272
2 | 2:43.48 | 2:23.43 | 12273 | 23040
3 | 5:07.16 | 3:02.37 | 23041 | 36727
4 | 8:09.53 | 3:15.10 | 36728 | 51362
5 | 11:24.63 | 4:28.25 | 51363 | 71487
6 | 15:53.13 | 3:14.67 | 71488 | 86104
7 | 19:08.05 | 3:18.21 | 86105 | 100975
8 | 22:26.26 | 2:32.04 | 100976 | 112379
9 | 24:58.30 | 4:13.15 | 112380 | 131369
10 | 29:11.45 | 4:51.41 | 131370 | 153235
11 | 34:03.11 | 1:49.17 | 153236 | 161427
12 | 35:52.28 | 3:06.42 | 161428 | 175419
13 | 38:58.70 | 3:15.41 | 175420 | 190085

Range status and errors

Selected range

Filename E:\POST\Post Nieuw\Tom Jones - Long Lost Suitcase (EAC)\Tom Jones - Long Lost Suitcase.wav

Peak level 99.5 %
Extraction speed 2.7 X
Range quality 99.9 %
Test CRC 96F64D13
Copy CRC 96F64D13
Copy OK

No errors occurred


AccurateRip summary

Track 1 not present in database
Track 2 not present in database
Track 3 not present in database
Track 4 not present in database
Track 5 not present in database
Track 6 not present in database
Track 7 not present in database
Track 8 not present in database
Track 9 not present in database
Track 10 not present in database
Track 11 not present in database
Track 12 not present in database
Track 13 not present in database

None of the tracks are present in the AccurateRip database

End of status report

DR Log


foobar2000 1.2.6 / Dynamic Range Meter 1.1.1
log date: 2016-04-16 20:06:06

----------------------------------------
Analyzed: Tom Jones / Long Lost Suitcase
----------------------------------------

DR Peak RMS Duration Track
----------------------------------------
DR11 -0.30 dB -13.60 dB 2:44 01-Opportunity To Cry
DR6 -0.22 dB -8.15 dB 2:24 02-Honey, Honey (feat. Imelda May)
DR6 -0.25 dB -6.92 dB 3:02 03-Take My Love (I Want To Give It)
DR11 -0.28 dB -13.51 dB 3:15 04-Bring It On Home
DR7 -0.21 dB -9.51 dB 4:28 05-Everybody Loves A Train
DR7 -0.31 dB -9.36 dB 3:15 06-Elvis Presley Blues
DR11 -0.51 dB -15.33 dB 3:18 07-He Was A Friend Of Mine
DR7 -0.19 dB -8.68 dB 2:32 08-Factory Girl
DR5 -0.04 dB -6.22 dB 4:13 09-I Wish You Would
DR6 -0.15 dB -8.69 dB 4:52 10-'Til My Back Ain't Got No Bone
DR8 -0.31 dB -10.25 dB 1:49 11-Why Don't You Love Me Like You Used To Do?
DR9 -0.31 dB -11.73 dB 3:07 12-Tomorrow Night
DR7 -0.19 dB -9.56 dB 3:16 13-Raise A Ruckus
----------------------------------------

Number of tracks: 13
Official DR value: DR8

Samplerate: 44100 Hz
Channels: 2
Bits per sample: 16
Bitrate: 830 kbps
Codec: FLAC
================================================================================

CUETools Log


[CUETools log; Date: 16.04.2016 20:01:58; Version: 2.1.5]
[CTDB TOCID: 9l9eJiZbtI07WH2lkf.vR0gSb5Q-] found.
Track | CTDB Status
1 | (50/50) Accurately ripped
2 | (50/50) Accurately ripped
3 | (50/50) Accurately ripped
4 | (50/50) Accurately ripped
5 | (50/50) Accurately ripped
6 | (50/50) Accurately ripped
7 | (50/50) Accurately ripped
8 | (50/50) Accurately ripped
9 | (50/50) Accurately ripped
10 | (50/50) Accurately ripped
11 | (50/50) Accurately ripped
12 | (50/50) Accurately ripped
13 | (50/50) Accurately ripped
[AccurateRip ID: 0013ed26-00c9d190-9c09e60d] found.
Track [ CRC | V2 ] Status
01 [d7c6e166|254ce8e8] (00+16/16) Accurately ripped
02 [58631b0c|5ca67e78] (00+16/16) Accurately ripped
03 [fe75bcf5|d58ee9e2] (00+16/16) Accurately ripped
04 [703fc860|7f724665] (00+16/16) Accurately ripped
05 [98fa490a|25503f45] (00+16/16) Accurately ripped
06 [6b7934bd|d9db893d] (00+16/16) Accurately ripped
07 [c05f7aa7|35fee467] (00+16/16) Accurately ripped
08 [218858b8|bc8dbabe] (00+16/16) Accurately ripped
09 [d0cb9dfd|3f9ab0a4] (00+16/16) Accurately ripped
10 [e0c44a9c|16012778] (00+16/16) Accurately ripped
11 [7fe556e2|c583aad0] (00+16/16) Accurately ripped
12 [6f0e78a0|885b239e] (00+16/16) Accurately ripped
13 [f966a760|089e4852] (00+16/16) Accurately ripped
Offsetted by -6:
01 [066dbcd8] (00/16) No match (V2 was not tested)
02 [09a859ad] (00/16) No match (V2 was not tested)
03 [06a69b85] (00/16) No match (V2 was not tested)
04 [d4c85b14] (00/16) No match (V2 was not tested)
05 [7aaa1a6e] (00/16) No match (V2 was not tested)
06 [1bf69206] (00/16) No match (V2 was not tested)
07 [34dcc9ef] (00/16) No match (V2 was not tested)
08 [822e3bf5] (00/16) No match (V2 was not tested)
09 [acc69eb4] (00/16) No match (V2 was not tested)
10 [90fedf88] (00/16) No match (V2 was not tested)
11 [16477b00] (00/16) No match (V2 was not tested)
12 [02d9020f] (00/16) No match (V2 was not tested)
13 [d5097594] (00/16) No match (V2 was not tested)

Track Peak [ CRC32 ] [W/O NULL] [ LOG ]
- 99,5 [96F64D13] [EC89139A] CRC32
01 96,6 [6D047D66] B5F5BF6
02 97,4 [9BA8FAA2] [1500F178]
03 97,1 [7BE50532] [F404B0E0]
04 96,8 [C998D0EE] [FF8FD269]
05 97,5 [8A36CA72] [6F8635EB]
06 96,5 [7B0A0E87] [36790FD3]
07 94,2 [A994060E] [8CB254D8]
08 97,7 [D1EB2F94] [C036D8B9]
09 99,5 [FBA50D05] [43414247]
10 98,2 [452EF476] [591D9A43]
11 96,5 [38E1FA2D] [4B226BD5]
12 96,5 [76712E57] [5D6D77D8]
13 97,8 [98AF0873] [F358B28B]
Download link:

Buy Premium To Support Me & Get Resumable Support & Max Speed:



Links are Interchangeable - No Password - Single Extraction
Direct Download

Tags: Suitcase

Comments
Name:*
E-Mail:*
Add Comments:
Enter Code: *