Download Now

Babymetal - Metal Resistance (2016)

Babymetal - Metal Resistance (2016)
EAC Rip | FLAC (Img) + Cue + Log ~ 431 Mb | MP3 CBR320 ~ 135 Mb
Scans Included (JPG, 300 dpi) | RAR 5% Recovery
J-Pop, Kawaii Metal, Heavy Metal | earMusic/Soyuz Music #SZCD 6564-16

Metal Resistance is the second studio album by the Japanese metal idol group Babymetal. It was first released on March 29, 2016 in Japan through BMD Fox Records, and on April 1, 2016 worldwide through earMusic and Sony Music Entertainment. Metal Resistance received generally positive reviews. The album debuted at number 39 on the Billboard 200, the highest rank for a Japanese artist. The album peaked at number fifteen on the UK Albums Chart, the highest position reached by a Japanese band...

Track List:

01. Road of Resistance [05:19]
02. KARATE [04:24]
03. Awadama Fever [04:14]
04. YAVA! [03:50]
05. Amore [04:42]
06. Meta Taro [04:08]
07. From Dusk Till Dawn [03:51]
08. GJ! [02:58]
09. Sis. Anger [03:48]
10. No Rain, No Rainbow [04:54]
11. Tales of The Destinies [05:36]
12. THE ONE - English ver. - [06:30]

EAC Log


Exact Audio Copy V1.0 beta 3 from 29. August 2011

EAC extraction logfile from 16. April 2016, 7:55

Babymetal / Metal Resistance

Used drive : MATSHITABD-CMB UJ242AS Adapter: 0 ID: 1

Read mode : Secure
Utilize accurate stream : Yes
Defeat audio cache : Yes
Make use of C2 pointers : No

Read offset correction : 103
Overread into Lead-In and Lead-Out : No
Fill up missing offset samples with silence : Yes
Delete leading and trailing silent blocks : No
Null samples used in CRC calculations : Yes
Used interface : Installed external ASPI interface

Used output format : User Defined Encoder
Selected bitrate : 1024 kBit/s
Quality : High
Add ID3 tag : Yes
Command line compressor : C:\Program Files (x86)\Exact Audio Copy\Flac\flac.exe
Additional command line options : -V -8 -T "Date=%year%" -T "Genre=%genre%" %source%

TOC of the extracted CD

Track | Start | Length | Start sector | End sector
-----------------------------
1 | 0:00.00 | 5:18.33 | 0 | 23882
2 | 5:18.33 | 4:23.58 | 23883 | 43665
3 | 9:42.16 | 4:13.47 | 43666 | 62687
4 | 13:55.63 | 3:49.38 | 62688 | 79900
5 | 17:45.26 | 4:41.07 | 79901 | 100982
6 | 22:26.33 | 4:07.53 | 100983 | 119560
7 | 26:34.11 | 3:50.06 | 119561 | 136816
8 | 30:24.17 | 2:57.52 | 136817 | 150143
9 | 33:21.69 | 3:47.74 | 150144 | 167242
10 | 37:09.68 | 4:53.07 | 167243 | 189224
11 | 42:03.00 | 5:35.66 | 189225 | 214415
12 | 47:38.66 | 6:29.07 | 214416 | 243597

Range status and errors

Selected range

Filename C:\EACrip\Babymetal - Metal Resistance.wav

Peak level 100.0 %
Extraction speed 2.6 X
Range quality 99.9 %
Test CRC DF81FD31
Copy CRC DF81FD31
Copy OK

No errors occurred


AccurateRip summary

Track 1 accurately ripped (confidence 4) [6E03985F] (AR v2)
Track 2 accurately ripped (confidence 4) [A61379EE] (AR v2)
Track 3 accurately ripped (confidence 4) [25A76EBE] (AR v2)
Track 4 accurately ripped (confidence 4) [91E766CD] (AR v2)
Track 5 accurately ripped (confidence 4) [23DBAD62] (AR v2)
Track 6 accurately ripped (confidence 4) 578B65B (AR v2)
Track 7 accurately ripped (confidence 4) [1566343C] (AR v2)
Track 8 accurately ripped (confidence 4) [561EC712] (AR v2)
Track 9 accurately ripped (confidence 4) [7FDED8E7] (AR v2)
Track 10 accurately ripped (confidence 4) [A22E853C] (AR v2)
Track 11 accurately ripped (confidence 4) [0A842D33] (AR v2)
Track 12 accurately ripped (confidence 4) [D8AD824B] (AR v2)

All tracks accurately ripped

End of status report

==== Log checksum 3AFE57C5528A2754AB6D27D6EAAE27B4F77039CDCCB732F2D84703FE6D3825FD ====

DR Log


foobar2000 1.2.6 / Dynamic Range Meter 1.1.1
log date: 2016-04-16 23:40:03

----------------------------------------
Analyzed: Babymetal / Metal Resistance
----------------------------------------

DR Peak RMS Duration Track
----------------------------------------
DR4 -0.01 dB -4.59 dB 5:18 01-Road of Resistance
DR5 0.00 dB -5.66 dB 4:24 02-KARATE
DR5 0.00 dB -5.74 dB 4:14 03-Awadama Fever
DR5 0.00 dB -6.06 dB 3:50 04-YAVA!
DR4 0.00 dB -4.98 dB 4:41 05-Amore
DR5 0.00 dB -5.82 dB 4:08 06-Meta Taro
DR5 0.00 dB -6.75 dB 3:50 07-From Dusk Till Dawn
DR6 0.00 dB -6.24 dB 2:58 08-GJ!
DR5 0.00 dB -5.64 dB 3:48 09-Sis. Anger
DR6 -0.01 dB -7.07 dB 4:53 10-No Rain, No Rainbow
DR5 0.00 dB -6.17 dB 5:36 11-Tales of The Destinies
DR4 0.00 dB -5.47 dB 6:29 12-THE ONE - English ver. -
----------------------------------------

Number of tracks: 12
Official DR value: DR5

Samplerate: 44100 Hz
Channels: 2
Bits per sample: 16
Bitrate: 1046 kbps
Codec: FLAC
================================================================================

CUETools Log


[CUETools log; Date: 16.04.2016 23:39:58; Version: 2.1.5]
[CTDB TOCID: 4OcHceijrZheO9.eTPbHLN1ovSs-] found.
Track | CTDB Status
1 | (168/169) Accurately ripped
2 | (168/169) Accurately ripped
3 | (168/169) Accurately ripped
4 | (168/169) Accurately ripped
5 | (168/169) Accurately ripped
6 | (169/169) Accurately ripped
7 | (169/169) Accurately ripped
8 | (169/169) Accurately ripped
9 | (168/169) Accurately ripped
10 | (169/169) Accurately ripped
11 | (169/169) Accurately ripped
12 | (169/169) Accurately ripped
[AccurateRip ID: 001760dd-00d8d916-990caf0c] found.
Track [ CRC | V2 ] Status
01 [29b45639|6e03985f] (0+4/9) Accurately ripped
02 [60981c47|a61379ee] (0+4/9) Accurately ripped
03 [1d518057|25a76ebe] (0+4/9) Accurately ripped
04 [c75fbeff|91e766cd] (0+4/9) Accurately ripped
05 [2b596017|23dbad62] (0+4/9) Accurately ripped
06 [aab57fe6|b578b65b] (0+4/9) Accurately ripped
07 [9a332322|1566343c] (0+4/9) Accurately ripped
08 [72963101|561ec712] (0+4/9) Accurately ripped
09 [9113235e|7fded8e7] (0+4/9) Accurately ripped
10 [a5bb5fa0|a22e853c] (0+4/9) Accurately ripped
11 [9182f2f8|0a842d33] (0+4/9) Accurately ripped
12 [a2308a63|d8ad824b] (0+4/9) Accurately ripped
Offsetted by -12:
01 [da01bc5d] (0/9) No match (V2 was not tested)
02 [02f28a9f] (0/9) No match (V2 was not tested)
03 [fcda252f] (0/9) No match (V2 was not tested)
04 [49cb16db] (0/9) No match (V2 was not tested)
05 [974fac8f] (0/9) No match (V2 was not tested)
06 [07669526] (0/9) No match (V2 was not tested)
07 [8775935e] (0/9) No match (V2 was not tested)
08 [4b027e79] (0/9) No match (V2 was not tested)
09 08f2186 (0/9) No match (V2 was not tested)
10 [d2319284] (0/9) No match (V2 was not tested)
11 [9227769c] (0/9) No match (V2 was not tested)
12 [23efdbff] (0/9) No match (V2 was not tested)

Track Peak [ CRC32 ] [W/O NULL] [ LOG ]
- 100,0 [DF81FD31] [680C42F5] CRC32
01 99,8 [EFAD92B4] [37B5DB80]
02 99,9 [01823560] [35482824]
03 99,9 [36EB9089] [D3D0D243]
04 99,9 [834E07C8] [D2900242]
05 99,9 [83F1BAD8] [7880FAED]
06 100,0 [F0EE197E] [51A3E5E6]
07 99,9 [FB3EB53E] [40EF51DE]
08 100,0 [57F1D129] [D4307877]
09 99,9 [6D635CE0] [E7F5D6CD]
10 99,8 [F2B7C81D] [4D45CECF]
11 100,0 [1885CFF7] 4FCA085
12 99,9 [DFC2B83F] [209083B5]
Download link:

Buy Premium To Support Me & Get Resumable Support & Max Speed:



Links are Interchangeable - No Password - Single Extraction
Direct Download

Tags: Babymetal, Resistance

Comments
Name:*
E-Mail:*
Add Comments:
Enter Code: *