Download Now

Don Airey - Light In The Sky (2008) Repost

Don Airey - Light In The Sky (2008)
EAC Rip | FLAC (Img) + Cue + Log ~ 439 Mb | MP3 CBR320 ~ 146 Mb
Scans (JPG, 600 dpi) ~ 55 Mb | RAR 5% Recovery
Space Rock, Progressive Rock | Mascot Records #M 7235 2

Donald Smith "Don" Airey has been the keyboardist in the rock band Deep Purple since 2002, succeeding Jon Lord. He has had a long and productive career, playing with such acts as Gary Moore, Ozzy Osbourne, Judas Priest, Black Sabbath, Jethro Tull, Whitesnake, Saxon, Wishbone Ash, Steve Vai, Colosseum II, Ten, Sinner, Michael Schenker, Rainbow, Empire, Thin Lizzy, Brian May, Divlje jagode and Living Loud. He has also worked with Andrew Lloyd Webber. A Light In The Sky, is his second solo record. Airey has gathered together a different set of collaborators (though Laurence Cottle of Sting/Eric Clapton/Brian Eno/Bill Bruford fame once again contributes precision bass-playing), though naturally Don provides the record's central creative thrust an entertaining mixture of instrumental and vocal songs, from the Bladerunner-style Ripples In The Fabric Of Time to the hook-laden hard rock of Shooting Star...

Track List:

01. Big Bang [0:01:05.53]
02. Ripples in the Fabric of Time [0:05:40.23]
03. Shooting Star [0:04:47.23]
04. Space Troll Patrol [0:03:40.43]
05. Andromeda M31 [0:04:26.39]
06. Endless Night [0:05:05.38]
07. Rocket to the Moon [0:01:20.27]
08. Lift Off [0:00:55.25]
09. Love you Too Much [0:04:00.10]
10. Cartwheel ESO 350-40 [0:00:58.50]
11. Sombrero M140 [0:03:04.01]
12. Into Orbit [0:03:02.06]
13. A Light in the Sky (PT2) [0:07:10.24]
14. Pale Blue Dot [0:03:04.59]
15. Metallicity [0:01:13.31]
16. Big Crunch [0:06:47.52]
17. Lost in the End of Time [0:04:17.73]

EAC Log


Exact Audio Copy V0.99 prebeta 4 from 23. January 2008

EAC extraction logfile from 3. May 2008, 14:55

Don Airey / Light in the Sky

Used drive : TSSTcorpCD/DVDW SH-S182M Adapter: 4 ID: 0

Read mode : Secure
Utilize accurate stream : Yes
Defeat audio cache : Yes
Make use of C2 pointers : No

Read offset correction : 6
Overread into Lead-In and Lead-Out : No
Fill up missing offset samples with silence : Yes
Delete leading and trailing silent blocks : No
Null samples used in CRC calculations : Yes
Used interface : Installed external ASPI interface

Used output format : Internal WAV Routines
Sample format : 44.100 Hz; 16 Bit; Stereo

TOC of the extracted CD

Track | Start | Length | Start sector | End sector
-----------------------------
1 | 0:00.00 | 1:05.53 | 0 | 4927
2 | 1:05.53 | 5:40.23 | 4928 | 30450
3 | 6:46.01 | 4:47.23 | 30451 | 51998
4 | 11:33.24 | 3:40.43 | 51999 | 68541
5 | 15:13.67 | 4:26.39 | 68542 | 88530
6 | 19:40.31 | 5:05.38 | 88531 | 111443
7 | 24:45.69 | 1:20.27 | 111444 | 117470
8 | 26:06.21 | 0:55.25 | 117471 | 121620
9 | 27:01.46 | 4:00.10 | 121621 | 139630
10 | 31:01.56 | 0:58.50 | 139631 | 144030
11 | 32:00.31 | 3:04.01 | 144031 | 157831
12 | 35:04.32 | 3:02.06 | 157832 | 171487
13 | 38:06.38 | 7:10.24 | 171488 | 203761
14 | 45:16.62 | 3:04.59 | 203762 | 217620
15 | 48:21.46 | 1:13.31 | 217621 | 223126
16 | 49:35.02 | 6:47.52 | 223127 | 253703
17 | 56:22.54 | 4:17.73 | 253704 | 273051

Range status and errors

Selected range

Filename F:\Release\Don Airey - A Light in the Sky\Don Airey - Light in the Sky.wav

Peak level 99.8 %
Range quality 100.0 %
Test CRC 44E8BDDB
Copy CRC 44E8BDDB
Copy OK

No errors occurred


AccurateRip summary

Track 1 not present in database
Track 2 not present in database
Track 3 not present in database
Track 4 not present in database
Track 5 not present in database
Track 6 not present in database
Track 7 not present in database
Track 8 not present in database
Track 9 not present in database
Track 10 not present in database
Track 11 not present in database
Track 12 not present in database
Track 13 not present in database
Track 14 not present in database
Track 15 not present in database
Track 16 not present in database
Track 17 not present in database

None of the tracks are present in the AccurateRip database

End of status report

DR Log


foobar2000 1.2.6 / Dynamic Range Meter 1.1.1
log date: 2016-04-17 02:05:58

----------------------------------------
Analyzed: Don Airey / Light in the Sky
----------------------------------------

DR Peak RMS Duration Track
----------------------------------------
DR9 -0.01 dB -13.26 dB 1:06 01-Big Bang
DR9 -0.01 dB -9.82 dB 5:40 02-Ripples in the Fabric of Time
DR8 -0.01 dB -9.37 dB 4:47 03-Shooting Star
DR9 -0.01 dB -9.86 dB 3:41 04-Space Troll Patrol
DR9 -0.01 dB -10.23 dB 4:27 05-Andromeda M31
DR10 -0.01 dB -10.02 dB 5:06 06-Endless Night
DR9 -0.01 dB -9.50 dB 1:20 07-Rocket to the Moon
DR9 -0.01 dB -13.18 dB 0:55 08-Lift Off
DR9 -0.01 dB -10.23 dB 4:00 09-Love you Too Much
DR9 -1.09 dB -11.79 dB 0:59 10-Cartwheel ESO 350-40
DR9 -0.01 dB -9.80 dB 3:04 11-Sombrero M140
DR11 -0.01 dB -13.97 dB 3:02 12-Into Orbit
DR9 -0.01 dB -9.61 dB 7:10 13-A Light in the Sky (PT2)
DR10 -0.01 dB -10.14 dB 3:05 14-Pale Blue Dot
DR10 -0.01 dB -12.55 dB 1:13 15-Metallicity
DR9 -0.01 dB -10.22 dB 6:48 16-Big Crunch
DR9 -0.01 dB -11.43 dB 4:18 17-Lost in the End of Time
----------------------------------------

Number of tracks: 17
Official DR value: DR9

Samplerate: 44100 Hz
Channels: 2
Bits per sample: 16
Bitrate: 963 kbps
Codec: FLAC
================================================================================

CUETools Log


[CUETools log; Date: 17.04.2016 2:05:47; Version: 2.1.5]
[CTDB TOCID: 4veqvtD2zFApSNEHNOOfjoyESBg-] found.
Track | CTDB Status
1 | (13/13) Accurately ripped
2 | (13/13) Accurately ripped
3 | (13/13) Accurately ripped
4 | (13/13) Accurately ripped
5 | (13/13) Accurately ripped
6 | (13/13) Accurately ripped
7 | (13/13) Accurately ripped
8 | (13/13) Accurately ripped
9 | (13/13) Accurately ripped
10 | (13/13) Accurately ripped
11 | (13/13) Accurately ripped
12 | (13/13) Accurately ripped
13 | (13/13) Accurately ripped
14 | (13/13) Accurately ripped
15 | (13/13) Accurately ripped
16 | (13/13) Accurately ripped
17 | (12/13) Accurately ripped
[AccurateRip ID: 00244de3-01ca03d1-070e3811] found.
Track [ CRC | V2 ] Status
01 [6760c989|86547383] (12+04/20) Accurately ripped
02 [1bf0f8c7|afeba0d2] (12+04/20) Accurately ripped
03 [46861354|c8bd20bb] (12+04/20) Accurately ripped
04 37a0ee9|1062a98c (12+04/20) Accurately ripped
05 [7e6b5fb9|6ff58c72] (12+04/20) Accurately ripped
06 [dee208ee|c8275cc2] (12+04/20) Accurately ripped
07 [3bd96ed9|d14f4929] (12+04/20) Accurately ripped
08 [00ec4467|0e816e00] (12+04/20) Accurately ripped
09 [aa78d2c0|32350d09] (12+04/20) Accurately ripped
10 [4b68dde0|0142a7e4] (12+04/20) Accurately ripped
11 [4f149277|cc5f2c36] (12+04/20) Accurately ripped
12 [96498243|37160d35] (12+04/20) Accurately ripped
13 [4a93e10a|b1241fd7] (12+04/20) Accurately ripped
14 [05368d50|96176462] (12+04/20) Accurately ripped
15 [aac41506|ea3d2290] (12+04/20) Accurately ripped
16 [e189f207|6a132668] (12+04/20) Accurately ripped
17 [609a88ef|599eb9a4] (12+04/20) Accurately ripped
Offsetted by -1310:
01 [7da5fdb5] (02/20) Accurately ripped
02 [9791560a] (02/20) Accurately ripped
03 [1a6d0d3a] (02/20) Accurately ripped
04 [d92bfe12] (02/20) Accurately ripped
05 180ff8b (02/20) Accurately ripped
06 [09c9cbcb] (02/20) Accurately ripped
07 [e84582f7] (02/20) Accurately ripped
08 [78463e85] (02/20) Accurately ripped
09 [4865141c] (02/20) Accurately ripped
10 [24018aeb] (02/20) Accurately ripped
11 34f984e (02/20) Accurately ripped
12 [402372cd] (02/20) Accurately ripped
13 [dccc043a] (02/20) Accurately ripped
14 [ead82cff] (02/20) Accurately ripped
15 [0a5fe42c] (02/20) Accurately ripped
16 [3bae9cd0] (02/20) Accurately ripped
17 [7daf5956] (02/20) Accurately ripped

Track Peak [ CRC32 ] [W/O NULL] [ LOG ]
- 99,8 [44E8BDDB] [E27621F7] CRC32
01 99,8 [F6F8A332] [692E239A]
02 99,8 [478062C5] [6F949947]
03 99,8 [87B2E5D8] A34A38E
04 99,8 [C06F06BF] [49897174]
05 99,8 [0AB6CA6E] [F69AE323]
06 99,8 [D118FAD2] [15C9A86B]
07 99,8 [9E289737] [D7C07544]
08 99,8 [2985FF23] DC57DB8
09 99,8 [2355BD8C] 97A0D14
10 88,1 [5AEB9885] 4E2C398
11 99,8 [13D965F8] [578B412F]
12 99,8 BE01FD2 [0B759BF1]
13 99,8 [916D4C38] [8B848C66]
14 99,8 54DF559 [6A751199]
15 99,8 [A6014F91] [652EBD3B]
16 99,8 [CF068658] [73E90790]
17 99,8 [6736EE8C] [FF9C2647]
Download link:

Buy Premium To Support Me & Get Resumable Support & Max Speed:



Links are Interchangeable - No Password - Single Extraction
Direct Download

Tags: Repost

Comments
Name:*
E-Mail:*
Add Comments:
Enter Code: *