Download Now


The 5.6.7.8's - Original CD Collection (1986-2016) [Combined & Expanded Re-Up]
The 5.6.7.8's - Original CD Collection (1986-2016)
EAC | FLAC+CUE+LOG or MP3 CBR 320 | Complete Scanwork | 1,75 GB or 687 MB

The 5.6.7.8's are an all-female Japanese garage rock trio, whose music is reminiscent of American surf music, rockabilly and garage rock. While their biggest international exposure was a cameo in the Tarantino flick Kill Bill, 5.6.7.8's are much more than one-hit wonders, bearing the proud distinction of being the prime and longest-enduring Japanese garage rock girl band. Featuring a revolving cast of musicians (only one of them ever being a boy) and possessing small but loyal fanbases in countries from China to the United States. The group have so named themselves because they play music reminiscent of 1950s, '60s, '70s, and '80s rock. Currently this CD Collection includes 9 CDs.

Tracklist:

01. Horror Rocker
02. いっしょにいたい
03. Boom Boom Girl
04. 来てよRamones
05. 空とぶJoe Joe
06. Jet Coaster
07. 虹色の恐竜
08. Peter Gun
09. I Wanna Be Your Girlfriend
10. We Got The Beat / Shakin' All Over

Original Cassette Tape Released by Tokyo Stiff (ZBUY 101) in 1988

EAC Logfile


Exact Audio Copy V1.0 beta 1 from 15. November 2010

EAC extraction logfile from 26. March 2012, 2:20

The 5.6.7.8.'s / Golden Hits Of The 5.6.7.8's

Used drive : PIONEER DVD-RW DVR-219L Adapter: 6 ID: 0

Read mode : Secure
Utilize accurate stream : Yes
Defeat audio cache : Yes
Make use of C2 pointers : No

Read offset correction : 6
Overread into Lead-In and Lead-Out : No
Fill up missing offset samples with silence : Yes
Delete leading and trailing silent blocks : No
Null samples used in CRC calculations : Yes
Used interface : Installed external ASPI interface

Used output format : Internal WAV Routines
Sample format : 44.100 Hz; 16 Bit; Stereo

TOC of the extracted CD

Track | Start | Length | Start sector | End sector
-----------------------------
1 | 0:00.00 | 4:07.19 | 0 | 18543
2 | 4:07.19 | 4:30.74 | 18544 | 38867
3 | 8:38.18 | 4:50.57 | 38868 | 60674
4 | 13:29.00 | 3:37.09 | 60675 | 76958
5 | 17:06.09 | 3:44.66 | 76959 | 93824
6 | 20:51.00 | 4:57.30 | 93825 | 116129
7 | 25:48.30 | 4:49.48 | 116130 | 137852
8 | 30:38.03 | 3:48.33 | 137853 | 154985
9 | 34:26.36 | 4:50.51 | 154986 | 176786
10 | 39:17.12 | 5:49.01 | 176787 | 202962

Range status and errors

Selected range

Filename C:\_www.AvaxHome.ru\1988- Golden Hits Of The 5.6.7.8's (CD-Reissue 2003)\The 5.6.7.8.'s - Golden Hits Of The 5.6.7.8's (RUC-001).wav

Peak level 99.3 %
Extraction speed 0.8 X
Range quality 100.0 %
Test CRC B3EB200E
Copy CRC B3EB200E
Copy OK

No errors occurred


AccurateRip summary

Track 1 cannot be verified as accurate (confidence 2) [810DC8BC], AccurateRip returned [24F4470C]
Track 2 cannot be verified as accurate (confidence 2) [3A9025FB], AccurateRip returned [93B73575]
Track 3 cannot be verified as accurate (confidence 2) D25ED6A, AccurateRip returned [4131BE57]
Track 4 cannot be verified as accurate (confidence 2) [E7817C7C], AccurateRip returned [45F04F5E]
Track 5 cannot be verified as accurate (confidence 2) [311D2D2B], AccurateRip returned [128332F0]
Track 6 cannot be verified as accurate (confidence 2) [D9C36CBE], AccurateRip returned [12D04FCB]
Track 7 cannot be verified as accurate (confidence 2) [9C472A38], AccurateRip returned [7EF2854A]
Track 8 cannot be verified as accurate (confidence 2) [8E6E208C], AccurateRip returned [4BD87358]
Track 9 cannot be verified as accurate (confidence 2) [C60A800A], AccurateRip returned 11A7FFC
Track 10 cannot be verified as accurate (confidence 2) [051EF1B0], AccurateRip returned [4E52CB92]

No tracks could be verified as accurate
You may have a different pressing from the one(s) in the database

End of status report

==== Log checksum A6BC3C723C45AFD1F04A45FA159747B6812C27FFE4644990F3BEE89C0FD9AAA9 ====



Produced by Mitane Takashe, Fulukawa Helokazu & The 5.6.7.8's
Engineered by Sun.Den Den. Re-mastered by Peace Music.

* Yoshiko - vocals, guitar
* Rico - guitar
* Yoshie - bass
* Sachiko - drums

Original Release Date: 1988
Re-Released on CD: December 22, 2003
Format: Original Recording Remastered
Label: Radio Underground Records
Catalog No.: RUC-001


The 5.6.7.8's - Original CD Collection (1986-2016) [Combined & Expanded Re-Up]
The 5.6.7.8's - The 5.6.7.8's Can't Help It! (1991)
FLAC+CUE+LOG or MP3 CBR 320 | 41:20 min | 271 or 97 MB

More screechy girl garage punk from Japan, this time around from 5.6.7.8's, who incorporate more of an influence of surf to their raw production and instrumentation. A lot of reverb and belting vocals can be heard throughout Can't Help It - as well as sloppy renditions of "Wolly Bully" and "Wild Thing." Fun, but nothing really outstanding, as these recordings could use a little studio tweaking.

~ Mike DaRonco, all media guide

Tracklist:

01. Ah-So!
02. Let's Have A Party
03. Pinball Party
04. Jet Coaster
05. Wooly Bully
06. Wild Thing
07. Bond Girl
08. Motor Cycle Go-Go-Go!
09. Fruit Bubble Love
10. The 5.6.7.8's
11. Woo Eee
12. Edie Is A Sweet Candy
13. I Was A Teenage Cave Woman
14. Blue Radio

EAC Logfile


Exact Audio Copy V1.0 beta 1 from 15. November 2010

EAC extraction logfile from 21. March 2012, 23:13

The 5.6.7.8's / The 5.6.7.8's Can't Help It!

Used drive : PIONEER DVD-RW DVR-219L Adapter: 6 ID: 0

Read mode : Secure
Utilize accurate stream : Yes
Defeat audio cache : Yes
Make use of C2 pointers : No

Read offset correction : 6
Overread into Lead-In and Lead-Out : No
Fill up missing offset samples with silence : Yes
Delete leading and trailing silent blocks : No
Null samples used in CRC calculations : Yes
Used interface : Installed external ASPI interface

Used output format : Internal WAV Routines
Sample format : 44.100 Hz; 16 Bit; Stereo

TOC of the extracted CD

Track | Start | Length | Start sector | End sector
-----------------------------
1 | 0:00.00 | 2:04.13 | 0 | 9312
2 | 2:04.13 | 1:40.00 | 9313 | 16812
3 | 3:44.13 | 3:30.72 | 16813 | 32634
4 | 7:15.10 | 4:05.48 | 32635 | 51057
5 | 11:20.58 | 2:10.52 | 51058 | 60859
6 | 13:31.35 | 2:42.13 | 60860 | 73022
7 | 16:13.48 | 3:15.15 | 73023 | 87662
8 | 19:28.63 | 2:12.37 | 87663 | 97599
9 | 21:41.25 | 2:29.00 | 97600 | 108774
10 | 24:10.25 | 2:03.48 | 108775 | 118047
11 | 26:13.73 | 3:14.17 | 118048 | 132614
12 | 29:28.15 | 3:20.50 | 132615 | 147664
13 | 32:48.65 | 3:59.13 | 147665 | 165602
14 | 36:48.03 | 4:31.55 | 165603 | 185982

Range status and errors

Selected range

Filename C:\_www.AvaxHome.ru\1991- The 5.6.7.8's Can't Help It! S-CD 1992\The 5.6.7.8's - The 5.6.7.8's Can't Help It! (ROCK 6096-2).wav

Peak level 98.4 %
Extraction speed 0.7 X
Range quality 100.0 %
Test CRC 0F557932
Copy CRC 0F557932
Copy OK

No errors occurred


AccurateRip summary

Track 1 accurately ripped (confidence 2) [A8C73D46]
Track 2 accurately ripped (confidence 2) [F57DD0EB]
Track 3 accurately ripped (confidence 2) [097AC3F1]
Track 4 accurately ripped (confidence 2) [0910AF89]
Track 5 accurately ripped (confidence 2) [4EB5660D]
Track 6 accurately ripped (confidence 2) [C3F33131]
Track 7 accurately ripped (confidence 2) [0B938123]
Track 8 accurately ripped (confidence 2) [4558CDFE]
Track 9 accurately ripped (confidence 2) [4993DABC]
Track 10 accurately ripped (confidence 2) [FE4CB11E]
Track 11 accurately ripped (confidence 2) [30FF727B]
Track 12 accurately ripped (confidence 2) [FA475D0A]
Track 13 accurately ripped (confidence 2) [AA529565]
Track 14 accurately ripped (confidence 2) [90742379]

All tracks accurately ripped

End of status report

==== Log checksum EBCC374E226606DC743F376A5ADE5011E01AB5EBDFED9674C506C2B14E19E661 ====



Recorded between 1989-1991. Some additional information read inside the booklet.

Original Release Date: 1991
Released on CD in U.S.: 1992
Label: Rockville Records
Catalog No.: ROCK 6096-2


The 5.6.7.8's - Original CD Collection (1986-2016) [Combined & Expanded Re-Up]

The 5.6.7.8's - The 5.6.7.8's (1994)
FLAC+CUE+LOG or MP3 CBR 320 | 35:26 min | 225 or 83 MB

The trio of retro-rockin' Japanese ladies has a fun rock & roll attitude, complete with '60s mini-dresses and maxi-beehives. Musically, the band has equally fun moments, but the cartoonish shtick can wear thin quickly. Simply put: once you're hooked, you're hooked. But, if the 5.6.7.8's don't appeal to you instantly, they likely never will since there's not a lot going on under the surface party atmosphere. The 5.6.7.8's are often more concerned with creating a goofy good-time atmosphere than creating truly substantial or innovative rock music - and that's not a bad thing. For fans of their playful - and deliciously primitive - brand of garage/rockabilly, they are the top of the genre, along with acts such as the wilder, more over-the-top Guitar Wolf. The band excels at taking the hip-shakin' elements of surf, rockabilly and garage rock and stripping it down to its bare bones. Even with minimal or sometimes hard-to-decipher lyrics the message is clear. The band's wild, giddy sound shares some common traits with wigged-out brethren such as the Cramps and the Pandoras. Songs with colorful, self-explanatory titles such as "I Walk Like Jayne Mansfield" and "Teenage Cleopatra" add to the band's charm. As far as garage revival acts go, they're probably not the best players or singers in the pack (a trait that often adds a punk rock appeal to their otherwise sweet sound). Nonetheless, the group's carefree sound and merry mangling of English are infectiously fun for those who like their rock & roll to be a little bit more bubblegum, favoring style over substance. Though they'd long maintained something of a cult following, the band's profile was slightly heightened in early 2003 and 2004, when Quentin Tarantino featured the revived group in his Kill Bill films and one of their songs, (the super-catchy 1996 ditty, "Woo Hoo") was picked up for a telephone ad campaign.

~ Karen E. Graves, all media guide

Tracklist:

01. Harlem Nocturne
02. Oriental Rock
03. I Walk Like Jayne Mansfield
04. Arkansas Twist
05. Handsome Man
06. Rockin' Rochester
07. One Potato
08. Long Tall Sally
09. Cat Fight Run
10. I Don't Need You No More
11. Highschool Witch
12. Teenage Cleopatra
13. Tallahassee Lassie
14. Scream

EAC Logfile


Exact Audio Copy V1.0 beta 1 from 15. November 2010

EAC extraction logfile from 28. May 2011, 16:42

The 5.6.7.8's / The 5.6.7.8's

Used drive : PLEXTOR DVDR PX-716A Adapter: 1 ID: 0

Read mode : Secure
Utilize accurate stream : Yes
Defeat audio cache : Yes
Make use of C2 pointers : No

Read offset correction : 30
Overread into Lead-In and Lead-Out : No
Fill up missing offset samples with silence : Yes
Delete leading and trailing silent blocks : No
Null samples used in CRC calculations : Yes
Used interface : Installed external ASPI interface

Used output format : Internal WAV Routines
Sample format : 44.100 Hz; 16 Bit; Stereo

TOC of the extracted CD

Track | Start | Length | Start sector | End sector
-----------------------------
1 | 0:00.32 | 1:16.20 | 32 | 5751
2 | 1:16.52 | 2:28.35 | 5752 | 16886
3 | 3:45.12 | 3:49.00 | 16887 | 34061
4 | 7:34.12 | 2:23.38 | 34062 | 44824
5 | 9:57.50 | 2:36.27 | 44825 | 56551
6 | 12:34.02 | 2:21.18 | 56552 | 67144
7 | 14:55.20 | 1:57.37 | 67145 | 75956
8 | 16:52.57 | 2:57.70 | 75957 | 89301
9 | 19:50.52 | 2:15.20 | 89302 | 99446
10 | 22:05.72 | 2:12.68 | 99447 | 109414
11 | 24:18.65 | 2:59.25 | 109415 | 122864
12 | 27:18.15 | 3:28.35 | 122865 | 138499
13 | 30:46.50 | 2:30.60 | 138500 | 149809
14 | 33:17.35 | 2:09.30 | 149810 | 159514

Range status and errors

Selected range

Filename C:\AvaxHome.ru\1994- The 5.6.7.8's\The 5.6.7.8's - The 5.6.7.8's (BOMB CD-19).wav

Peak level 96.8 %
Extraction speed 0.4 X
Range quality 99.9 %
Test CRC 67E1D67C
Copy CRC 67E1D67C
Copy OK

No errors occurred


AccurateRip summary

Track 1 not present in database
Track 2 not present in database
Track 3 not present in database
Track 4 not present in database
Track 5 not present in database
Track 6 not present in database
Track 7 not present in database
Track 8 not present in database
Track 9 not present in database
Track 10 not present in database
Track 11 not present in database
Track 12 not present in database
Track 13 not present in database
Track 14 not present in database

None of the tracks are present in the AccurateRip database

End of status report

==== Log checksum 4CB98CDFE0BFE2E10206E53F14B905857FD7C42AEEA682C711019CA445247212 ====



All songs written, produced and arranged by 5,6,7,8's
Recorded at Jam Studio, Tokyo. Engineered by Kazu Hama.

* Yoshiko Fujiyama - vocals, guitars
* Akiko Omo - bass guitar, vocals
* Sachiko Fujii - drums, vocals

Orig. Release Date: 1994
Label: Time Bomb Records
Catalog No.: BOMBCD-19


The 5.6.7.8's - Original CD Collection (1986-2016) [Combined & Expanded Re-Up]
The 5.6.7.8's - Pin Heel Stomp (1997)
FLAC+CUE+LOG or MP3 CBR 320 | 16:59 min | 115 or 40 MB

If there was ever a Japanese beach dance party film, the 5.6.7.8's would be the band that everyone would boogie down to. All-girl rockabilly that can be equally tough and raw while at the same time bouncy and feeling good, Pin Heel Storm is what would happen if Supersnazz and Shonen Knife collaborated together in the studio. Slow moving at times, and the screechy vocals can wear thin after a while, but, all in all, a nice romp of '50s revival with a garagy edge.

~ Mike DaRonco, all media guide

Tracklist:

01. Pin Heel Stomp
02. Dance In The Avenue A
03. Arkansas Twist
04. Hey! Mashed Potato, Hey!
05. Spell Stroll
06. The Barracuda

EAC Logfile


Exact Audio Copy V0.99 prebeta 5 from 4. May 2009

EAC extraction logfile from 28. October 2010, 10:42

The 5.6.7.8's / Pin Heel Stomp

Used drive : PIONEER DVD-RW DVR-116D Adapter: 1 ID: 0

Read mode : Secure
Utilize accurate stream : Yes
Defeat audio cache : Yes
Make use of C2 pointers : No

Read offset correction : 96
Overread into Lead-In and Lead-Out : No
Fill up missing offset samples with silence : Yes
Delete leading and trailing silent blocks : No
Null samples used in CRC calculations : Yes
Used interface : Installed external ASPI interface

Used output format : Internal WAV Routines
Sample format : 44.100 Hz; 16 Bit; Stereo

TOC of the extracted CD

Track | Start | Length | Start sector | End sector
-----------------------------
1 | 0:00.00 | 2:44.60 | 0 | 12359
2 | 2:44.60 | 3:09.40 | 12360 | 26574
3 | 5:54.25 | 2:00.57 | 26575 | 35631
4 | 7:55.07 | 2:43.55 | 35632 | 47911
5 | 10:38.62 | 3:45.48 | 47912 | 64834
6 | 14:24.35 | 2:34.32 | 64835 | 76416

Range status and errors

Selected range

Filename C:\AvaxHome.ru\The 5.6.7.8's - Pin Heel Stomp (1997)\The 5.6.7.8's - Pin Heel Stomp (Bomb CD-53).wav

Peak level 99.4 %
Range quality 100.0 %
Test CRC 4CCC3FBD
Copy CRC 4CCC3FBD
Copy OK

No errors occurred


AccurateRip summary

Track 1 cannot be verified as accurate (confidence 1) [5D093577], AccurateRip returned [08B3C5DB]
Track 2 cannot be verified as accurate (confidence 1) [7C6C60AA], AccurateRip returned [9DF59CA6]
Track 3 cannot be verified as accurate (confidence 1) [70076551], AccurateRip returned [03524EAF]
Track 4 cannot be verified as accurate (confidence 1) [E41884FC], AccurateRip returned [8E020335]
Track 5 cannot be verified as accurate (confidence 1) [89F5CC25], AccurateRip returned [376279EA]
Track 6 cannot be verified as accurate (confidence 1) [767ED742], AccurateRip returned [04A82C99]

No tracks could be verified as accurate
You may have a different pressing from the one(s) in the database

End of status report



Produced & Arranged by 5,6,7,8's
Mastered by Koichi Hara at Free People.

* Yoshiko Fujiyama - vocals, guitars
* Yoshiko Yamaguchi - bass guitar, vocals
* Sachiko Fujii - drums, percussion, vocals

Release Date: November 30, 1997
Label: Time Bomb Records
Catalog No.: BOMBCD-53


The 5.6.7.8's - Original CD Collection (1986-2016) [Combined & Expanded Re-Up]
The 5.6.7.8's - I'm Blue (CDS 2002)
FLAC+CUE+LOG or MP3 CBR 320 | 4:52 min | DATA | 33 or 12 MB

The title track, featured in the film "Kill Bill" taken from the 2002 album "Teenage Mojo Workout", second track is non-album track on japanese language, and there's also two live videos as enchanced CD-ROM part.

Tracklist:

01. I'm Blue (Album version)
02. (I'm Sorry Mama) I'm a Wild One [Japanese version]
03. Dance In The Avenue A [Live in London - Video].mpg
04. I'm Blue [Live in London - Video].mpg

EAC Logfile


Exact Audio Copy V0.99 prebeta 5 from 4. May 2009

EAC extraction logfile from 23. March 2010, 18:23

The 5.6.7.8's / I'm Blue (CDS)

Used drive : PIONEER DVD-RW DVR-116D Adapter: 1 ID: 0

Read mode : Secure
Utilize accurate stream : Yes
Defeat audio cache : Yes
Make use of C2 pointers : No

Read offset correction : 96
Overread into Lead-In and Lead-Out : No
Fill up missing offset samples with silence : Yes
Delete leading and trailing silent blocks : No
Null samples used in CRC calculations : Yes
Used interface : Installed external ASPI interface

Used output format : Internal WAV Routines
Sample format : 44.100 Hz; 16 Bit; Stereo

TOC of the extracted CD

Track | Start | Length | Start sector | End sector
-----------------------------
1 | 0:00.00 | 2:29.28 | 0 | 11202
2 | 2:29.28 | 2:22.10 | 11203 | 21862
3 | 7:23.38 | 7:54.27 | 33263 | 68839

Range status and errors

Selected range

Filename C:\AvaxHome.ru\The 5.6.7.8's - I'm Blue (CDS 2002)\The 5.6.7.8's - I'm Blue (CDS).wav

Peak level 99.9 %
Range quality 100.0 %
Test CRC FF5C9831
Copy CRC FF5C9831
Copy OK

No errors occurred


AccurateRip summary

Track 1 not present in database
Track 2 not present in database

None of the tracks are present in the AccurateRip database

End of status report



Produced & Arranged by 5,6,7,8's
Engineered by Soichiro Nakamura
Recorded at Peace Music in 2002, Tokyo, Japan

* Yoshiko Fujiyama - vocals, guitars
* Yoshiko Yamaguchi - bass guitar, vocals
* Sachiko Fujii - drums, percussion, vocals

Original Release Date: 2002
Worldwide Re-Released: September 13, 2004
Format: Original Recording Reissued
Label: Sweet Nothing Records
Catalog No.: CSSN 029


The 5.6.7.8's - Original CD Collection (1986-2016) [Combined & Expanded Re-Up]
The 5.6.7.8's - Pretty Little Lilly Can Dance No More (2002)
EAC | FLAC+CUE+LOG or MP3 CBR 320 | 13:22 minutes | 95 or 31 MB

The 5.6.7.8's have a great vintage rock and roll sound that incorporates adorable Japanese vocals. The musicianship is great, recreating catchy '50's style jukebox rock with fun to sing a long backing vocals.
The first track kind of reminded me of The Who in their earlier years, where "Daddy Goes Out Jail" is more of a boogie song that you'd kick your socks off and dance along to. The third song slows things down just a little bit while the singer croons out a love song. The last tune doesn't have any words, but some wicked organ playing.
At first, I was dssappointed that it was such a short disc for what I paid $30, but it's one of those albums that you can just stick on repeat for over an hour and not want to listen to anything else. The package design is beautiful and reads mostly in Japanese.

Overall, I highly recommend these songs, but try to see if you can find them on a full length rather than dishing out the dough for this one.

~ customer review at amazon.com

Tracklist:

01. Pretty Little Lilly Can Dance No More
02. Daddy Goes Out Jail
03. Oh! Baby (We Got A Good Thing Going)
04. Space Rock - Part 1

EAC Logfile


Exact Audio Copy V1.0 beta 1 from 15. November 2010

EAC extraction logfile from 23. March 2011, 16:12

The 5.6.7.8's / Pretty Little Lilly Can Dance No More

Used drive : PIONEER DVD-RW DVR-116D Adapter: 1 ID: 0

Read mode : Secure
Utilize accurate stream : Yes
Defeat audio cache : Yes
Make use of C2 pointers : No

Read offset correction : 96
Overread into Lead-In and Lead-Out : No
Fill up missing offset samples with silence : Yes
Delete leading and trailing silent blocks : No
Null samples used in CRC calculations : Yes
Used interface : Installed external ASPI interface

Used output format : Internal WAV Routines
Sample format : 44.100 Hz; 16 Bit; Stereo

TOC of the extracted CD

Track | Start | Length | Start sector | End sector
-----------------------------
1 | 0:00.00 | 2:20.10 | 0 | 10509
2 | 2:20.10 | 3:18.17 | 10510 | 25376
3 | 5:38.27 | 2:16.48 | 25377 | 35624
4 | 7:55.00 | 5:27.00 | 35625 | 60149

Range status and errors

Selected range

Filename C:\AvaxHome.ru\The 5.6.7.8s - Pretty Little Lilly Can Dance No More (EP 2002)\The 5.6.7.8's - Pretty Little Lilly Can Dance No More.wav

Peak level 100.0 %
Extraction speed 2.2 X
Range quality 100.0 %
Test CRC AA3B9F3B
Copy CRC AA3B9F3B
Copy OK

No errors occurred


AccurateRip summary

Track 1 not present in database
Track 2 not present in database
Track 3 not present in database
Track 4 not present in database

None of the tracks are present in the AccurateRip database

End of status report

==== Log checksum 01D350AA96073D71BDB63D0DF4842984F751EF6E0D041D5B52ACCB90235DCB83 ====



Produced & Arranged by 5,6,7,8's
Recorded by Kaz Hama at Gok Sound
Mastered by Hikari Mitsufuji.

* Yoshiko Fujiyama - vocals, guitars
* Yoshiko Yamaguchi - bass guitar, vocals
* Sachiko Fujii - drums, percussion, vocals

Release Date: April 26, 2002
Label: DECKREC, Japan
Catalog No.: DCRC 0041


The 5.6.7.8's - Original CD Collection (1986-2016) [Combined & Expanded Re-Up]
The 5.6.7.8's - Teenage Mojo Workout (2002)
FLAC+CUE+LOG or MP3 CBR 320 Kbps | 33:55 min | 237 or 76 MB

Teenage Mojo Workout is twelve tracks of authentic Rock'n'Roll, twist and jive from the Tarantino-sponsored 5, 6, 7, 8's. Featuring half an album of covers (including 'Hanky Panky' and 'Harlem Shuffle') and a host of thrilling originals, 'Teenage Mojo Workout' proves that there's more to this band than just 'woo hoo'. Sweet Nothing label release of 2004.

Tracklist:

01. (I'm Sorry Mama) I'm A Wild One
02. I'm Blue
03. Road Runner
04. I Got A Man
05. Typhoon Girl
06. Hanky Panky
07. Harlem Shuffle
08. Green Onions
09. In The Subway
10. Teenage Mojo Workout
11. Let's Go Boogaloo
12. New Orleans Rock

EAC Logfile


Exact Audio Copy V1.0 beta 1 from 15. November 2010

EAC extraction logfile from 26. March 2012, 4:15

The 5.6.7.8's / Teenage Mojo Workout

Used drive : PIONEER DVD-RW DVR-219L Adapter: 6 ID: 0

Read mode : Secure
Utilize accurate stream : Yes
Defeat audio cache : Yes
Make use of C2 pointers : No

Read offset correction : 6
Overread into Lead-In and Lead-Out : No
Fill up missing offset samples with silence : Yes
Delete leading and trailing silent blocks : No
Null samples used in CRC calculations : Yes
Used interface : Installed external ASPI interface

Used output format : Internal WAV Routines
Sample format : 44.100 Hz; 16 Bit; Stereo

TOC of the extracted CD

Track | Start | Length | Start sector | End sector
-----------------------------
1 | 0:00.00 | 2:18.39 | 0 | 10388
2 | 2:18.39 | 2:29.15 | 10389 | 21578
3 | 4:47.54 | 2:09.30 | 21579 | 31283
4 | 6:57.09 | 2:48.60 | 31284 | 43943
5 | 9:45.69 | 2:57.59 | 43944 | 57277
6 | 12:43.53 | 2:59.01 | 57278 | 70703
7 | 15:42.54 | 2:23.45 | 70704 | 81473
8 | 18:06.24 | 3:07.50 | 81474 | 95548
9 | 21:13.74 | 3:08.20 | 95549 | 109668
10 | 24:22.19 | 2:53.14 | 109669 | 122657
11 | 27:15.33 | 2:59.41 | 122658 | 136123
12 | 30:14.74 | 3:40.09 | 136124 | 152632

Range status and errors

Selected range

Filename C:\_www.AvaxHome.ru\2002- Teenage Mojo Workout (UK Edition 2004)\The 5.6.7.8's - Teenage Mojo Workout (SNCD-035).wav

Peak level 87.6 %
Extraction speed 0.7 X
Range quality 100.0 %
Test CRC 84502029
Copy CRC 84502029
Copy OK

No errors occurred


AccurateRip summary

Track 1 accurately ripped (confidence 8) [7B0D4D5E]
Track 2 accurately ripped (confidence 8) [3E012459]
Track 3 accurately ripped (confidence 8) [ACF53E68]
Track 4 accurately ripped (confidence 7) 9D46AD7
Track 5 accurately ripped (confidence 8) [81B6E021]
Track 6 accurately ripped (confidence 8) [72D74D76]
Track 7 accurately ripped (confidence 8) [633AA675]
Track 8 accurately ripped (confidence 8) [70B82963]
Track 9 accurately ripped (confidence 8) [E87A8BAE]
Track 10 accurately ripped (confidence 8) [9524FEE9]
Track 11 accurately ripped (confidence 8) [251CE74D]
Track 12 accurately ripped (confidence 8) [15115242]

All tracks accurately ripped

End of status report

==== Log checksum 46A01C2974E82C67776B523630403595406A6CB0A0598591F404EB0363CE287F ====



Produced & Arranged by The 5,6,7,8's
Engineered by Soichiro Nakamura
Recorded at Peace Music in Tokyo, Japan

* Yoshiko Fujiyama - vocals, guitars
* Yoshiko Yamaguchi - vocals, bass guitar
* Sachiko Fujii - drums, percussion, vocals

guest musicians:
- Mabo - piano
- Tucker - organ
- Sister Martin - horn section
- Wild Chicks/Uri/King Joe - backing vocals

Original Release Date: April 26, 2002
Worldwide Re-Released: October 4, 2004
Format: Original Recording Reissued
Label: Sweet Nothing Records (U.K.)
Catalog No.: SNCD 35


The 5.6.7.8's - Original CD Collection (1986-2016) [Combined & Expanded Re-Up]
The 5.6.7.8's - Bomb The Rocks: Early Days Singles
FLAC+CUE+LOG or MP3 CBR 320 Kbps | Complete Scanwork | 518 or 169 MB



The 5.6.7.8's - Original CD Collection (1986-2016) [Combined & Expanded Re-Up]

This Japanese all-girl (except once, for a year or so) quartet-turned-trio is almost certainly best known for appearing in the Quentin Tarantino movie Kill Bill, Vol. 1, or maybe for licensing their song "Woo Hoo" in a commercial. This compilation contains "Woo Hoo", but that track's almost soft enough to be worthy of Shonen Knife, and not at all representative of the ladies at their best. The raucous countdown that opens the disc - "10, 9, 8, 7, 6, 54321!" - gives a much better indication of what the 5.6.7.8's do. They're a punky garage/rockabilly act who write songs like "She Was a Mau Mau", "Motor Cycle Go-Go-Go", "I Was a Teenage Cave Woman", and generally come off like a slightly less distortion-fixated, distaff version of Guitar Wolf. Frontwoman Ronnie Fujiyama's last name is fortuitous, because she's every bit as raw a rock & roll howler as Wanda Jackson, who famously sang "Fujiyama Mama". Her guitar skills aren't half bad either; she cranks it up to almost Link Wray levels of scorch, as her sister, Fujii Sachiko, slams the kit and bassist Omo throbs away. This is amped-up, three-chord rock & roll, sometimes with simple lyrics and other times instrumental (but still punctuated by high-pitched shrieks). The 5.6.7.8's are a Japanese national treasure who deserve the international audience they've earned through hard touring - this disc, which, like its title says, compiles their early singles and EPs (most of which are otherwise unavailable in America, except for the first six tracks, which Sympathy for the Record Industry released as the Bomb the Twist EP), is a near-perfect introduction to the band (though it would have been nice to have "I Walk Like Jayne Mansfield"), and may in fact be all the casual fan needs, since their full-length albums didn't exactly break new ground.

~ Phil Freeman, all media guide

Tracklist:

01. Bomb The Twist
02. Jane In The Jungle
03. Three Cool Chicks
04. Guitar Date
05. Woo Hoo
06. Dream Boy
07. Continental Hop
08. Jump Jack Jump
09. Smilly Willy
10. Mr. Lee
11. It's Rainy
12. Road Runner
13. My Boyfriend From Outer Space
14. She Was A Mau Mau
15. Long Tall Sally
16. Scream
17. Hot Generation
18. Bond Girl
19. Fruit Bubble Love
20. Motor Cycle Go-Go-Go
21. Jet Coaster
22. The 5.6.7.8's
23. Edie Is A Sweet Candy
24. I Was A Teenage Cavewoman
25. Ah-So
26. Pinball Party
27. Blue Radio

EAC Logfile


Exact Audio Copy V1.0 beta 1 from 15. November 2010

EAC extraction logfile from 26. March 2012, 4:56

The 5.6.7.8's / Bomb The Rocks: Early Days Singles

Used drive : PIONEER DVD-RW DVR-219L Adapter: 6 ID: 0

Read mode : Secure
Utilize accurate stream : Yes
Defeat audio cache : Yes
Make use of C2 pointers : No

Read offset correction : 6
Overread into Lead-In and Lead-Out : No
Fill up missing offset samples with silence : Yes
Delete leading and trailing silent blocks : No
Null samples used in CRC calculations : Yes
Used interface : Installed external ASPI interface

Used output format : Internal WAV Routines
Sample format : 44.100 Hz; 16 Bit; Stereo

TOC of the extracted CD

Track | Start | Length | Start sector | End sector
-----------------------------
1 | 0:00.00 | 2:22.70 | 0 | 10719
2 | 2:22.70 | 2:48.06 | 10720 | 23325
3 | 5:11.01 | 2:28.68 | 23326 | 34493
4 | 7:39.69 | 2:39.35 | 34494 | 46453
5 | 10:19.29 | 1:59.05 | 46454 | 55383
6 | 12:18.34 | 3:03.12 | 55384 | 69120
7 | 15:21.46 | 1:58.39 | 69121 | 78009
8 | 17:20.10 | 2:00.17 | 78010 | 87026
9 | 19:20.27 | 1:50.16 | 87027 | 95292
10 | 21:10.43 | 2:06.07 | 95293 | 104749
11 | 23:16.50 | 1:52.16 | 104750 | 113165
12 | 25:08.66 | 2:11.20 | 113166 | 123010
13 | 27:20.11 | 3:37.23 | 123011 | 139308
14 | 30:57.34 | 3:42.00 | 139309 | 155958
15 | 34:39.34 | 3:16.23 | 155959 | 170681
16 | 37:55.57 | 2:16.34 | 170682 | 180915
17 | 40:12.16 | 2:30.69 | 180916 | 192234
18 | 42:43.10 | 3:10.73 | 192235 | 206557
19 | 45:54.08 | 2:25.44 | 206558 | 217476
20 | 48:19.52 | 2:09.36 | 217477 | 227187
21 | 50:29.13 | 4:04.32 | 227188 | 245519
22 | 54:33.45 | 1:59.59 | 245520 | 254503
23 | 56:33.29 | 3:19.14 | 254504 | 269442
24 | 59:52.43 | 3:58.61 | 269443 | 287353
25 | 63:51.29 | 2:01.16 | 287354 | 296444
26 | 65:52.45 | 3:31.38 | 296445 | 312307
27 | 69:24.08 | 4:32.39 | 312308 | 332746

Range status and errors

Selected range

Filename C:\_www.AvaxHome.ru\2003- Bomb The Rocks - Early Days Singles (UK 2004)\The 5.6.7.8's - Bomb The Rocks (Early Days Singles).wav

Peak level 87.4 %
Extraction speed 0.5 X
Range quality 100.0 %
Test CRC AF2CDC85
Copy CRC AF2CDC85
Copy OK

No errors occurred


AccurateRip summary

Track 1 accurately ripped (confidence 3) [C4C0D5AC]
Track 2 accurately ripped (confidence 3) [22F92F46]
Track 3 accurately ripped (confidence 3) [6511ED13]
Track 4 accurately ripped (confidence 3) [8B168FD2]
Track 5 accurately ripped (confidence 3) [43877841]
Track 6 accurately ripped (confidence 3) 0BE30BB
Track 7 accurately ripped (confidence 3) [76C5D95D]
Track 8 accurately ripped (confidence 3) [8F0A3523]
Track 9 accurately ripped (confidence 3) [A1B0DD62]
Track 10 accurately ripped (confidence 3) [597A3958]
Track 11 accurately ripped (confidence 3) [6256C980]
Track 12 accurately ripped (confidence 3) [9B129041]
Track 13 accurately ripped (confidence 3) [AAC3DFD2]
Track 14 accurately ripped (confidence 3) [42EC00EA]
Track 15 accurately ripped (confidence 3) E35AFB3
Track 16 accurately ripped (confidence 3) [C9D8F732]
Track 17 accurately ripped (confidence 3) [68B15350]
Track 18 accurately ripped (confidence 3) [708B01E2]
Track 19 accurately ripped (confidence 3) [C9E595DF]
Track 20 accurately ripped (confidence 3) [5B62D4E7]
Track 21 accurately ripped (confidence 3) [5F3077C9]
Track 22 accurately ripped (confidence 3) [193D32EC]
Track 23 accurately ripped (confidence 3) [37EC98EA]
Track 24 accurately ripped (confidence 3) [2BAF983B]
Track 25 accurately ripped (confidence 3) [E5EC6F43]
Track 26 accurately ripped (confidence 3) [04FE2C56]
Track 27 accurately ripped (confidence 3) [74D82B4D]

All tracks accurately ripped

End of status report

==== Log checksum 0FE2E76CD0B6CF48A7699BEE0E26E0F7B86799B7BE1B22694892F27AC24D5582 ====



All additional information read inside the booklet.


The 5.6.7.8's - Original CD Collection (1986-2016) [Combined & Expanded Re-Up]
click to enlarge


Original Release Date: November 8, 2003
U.K. Release Date: March 22, 2004
Format: Original Recording Remastered
Label: Sweet Nothing, U.K.
Catalog No.: SNCD-028


The 5.6.7.8's - Original CD Collection (1986-2016) [Combined & Expanded Re-Up]
The 5.6.7.8's - Tanuki Goten (2014)
FLAC+CUE+LOG or MP3 CBR 320 | 34:03 min | 158 or 77 MB

デビュー以来、世界を股にかけて活躍中の (国宝級)東京ロッキン・ガレージ・ガール・トリオ、超待望ニュー・アルバム! ロンドン100%モノラル録音+東京でのジーノ佐藤氏 (THE HAIR)プロデュース・トラックの合体濃厚アルバムが遂に完成!


Tracklist:

01. Sho-Jo-Ji
02. Hoovering, Part 1
03. Shake
04. Mothra
05. Ki Kya Shout
06. Havana Moon, Banana Loon, Asuka Boom
07. Great Balls Of Fire
08. Hoovering, Part 2
09. Soulful Dress
10. Harlem Nocturne
11. Bankrobber

EAC Logfile


Exact Audio Copy V1.1 from 23. June 2015

EAC extraction logfile from 5. April 2016, 3:30

The 5.6.7.8's / Tanuki Goten

Used drive : ASUS DRW-24B1ST Adapter: 1 ID: 0

Read mode : Secure
Utilize accurate stream : Yes
Defeat audio cache : Yes
Make use of C2 pointers : No

Read offset correction : 6
Overread into Lead-In and Lead-Out : No
Fill up missing offset samples with silence : Yes
Delete leading and trailing silent blocks : No
Null samples used in CRC calculations : Yes
Used interface : Native Win32 interface for Win NT & 2000

Used output format : Internal WAV Routines
Sample format : 44.100 Hz; 16 Bit; Stereo

TOC of the extracted CD

Track | Start | Length | Start sector | End sector
-----------------------------
1 | 0:00.00 | 3:18.43 | 0 | 14892
2 | 3:18.43 | 2:58.55 | 14893 | 28297
3 | 6:17.23 | 2:36.40 | 28298 | 40037
4 | 8:53.63 | 2:54.47 | 40038 | 53134
5 | 11:48.35 | 2:52.56 | 53135 | 66090
6 | 14:41.16 | 3:03.71 | 66091 | 79886
7 | 17:45.12 | 2:31.20 | 79887 | 91231
8 | 20:16.32 | 2:57.20 | 91232 | 104526
9 | 23:13.52 | 4:19.73 | 104527 | 124024
10 | 27:33.50 | 3:29.62 | 124025 | 139761
11 | 31:03.37 | 2:59.10 | 139762 | 153196

Range status and errors

Selected range

Filename F:\_Rehabilly\The 5.6.7.8's\2014- Tanukigoten\The 5.6.7.8's - Tanuki Goten (BOMBCD-119).wav

Peak level 100.0 %
Extraction speed 7.3 X
Range quality 100.0 %
Test CRC FA05EBB7
Copy CRC FA05EBB7
Copy OK

No errors occurred


AccurateRip summary

Track 1 accurately ripped (confidence 1) [70FB915F] (AR v2)
Track 2 accurately ripped (confidence 1) [6B8523F2] (AR v2)
Track 3 accurately ripped (confidence 1) [493AC208] (AR v2)
Track 4 accurately ripped (confidence 1) [19A38E08] (AR v2)
Track 5 accurately ripped (confidence 1) [378EB966] (AR v2)
Track 6 accurately ripped (confidence 1) [9A103765] (AR v2)
Track 7 accurately ripped (confidence 1) 047F03F (AR v2)
Track 8 accurately ripped (confidence 1) [88A70B2C] (AR v2)
Track 9 accurately ripped (confidence 1) [302BC8C3] (AR v2)
Track 10 accurately ripped (confidence 1) [5EA036DB] (AR v2)
Track 11 accurately ripped (confidence 1) [2BAD49DD] (AR v2)

All tracks accurately ripped

End of status report

==== Log checksum E8ECC7DC752EB4CC83CFF9ED1F93C17A9CB93B486B36E763B53BCFD1AFCA1C94 ====



Produced by Geno Sato
Recorded & Mixed by Ed Deegan at Gizzard Recording London in June 2013
+ Recorded & Mixed by Buntaro Shibuya at GOK SOUND Tokyo in November 2013 - March 2014.

* Yoshiko Fujiyama - Vocal, Guitar, Organ, Percussion
* Chellio Panther Ото - Bass, Backing Vocals, Percussion
* Yoshiko Yamaguchi - Bass, Backing Vocals, Percussion
* Sachiko Fujii - Drums, Backing Vocals, Percussion

Release Date: December 24, 2014
Label: Time Bomb Records
Catalog No.: BOMBCD-119
Download link:

Buy Premium To Support Me & Get Resumable Support & Max Speed:

nitroflare_com:
http://nitroflare.com/view/86AB6C1818983AE/7iuct.FSSE191CHI20G.rar
http://nitroflare.com/view/BA05C79358B4B56/7iuct.FSSE191CHI550C.rar
http://nitroflare.com/view/4F390AB586BCB6A/7iuct.FSSE191CHI883F.rar
http://nitroflare.com/view/0E00E5E38CD2B57/7iuct.FSSE194STD20G.rar
http://nitroflare.com/view/38D4071975D3BCE/7iuct.FSSE194STD520C.rar
http://nitroflare.com/view/4FB2723E1F5E508/7iuct.FSSE194STD851F.rar
http://nitroflare.com/view/A2E7E8D3FAC491D/7iuct.FSSE197PHS20G.rar
http://nitroflare.com/view/659563C084F6726/7iuct.FSSE197PHS400C.rar
http://nitroflare.com/view/6CA077807E25AB6/7iuct.FSSE197PHS923F.rar
http://nitroflare.com/view/B0F0502683669FB/7iuct.FSSE202IMB20G.rar
http://nitroflare.com/view/1E341C4BD1B5BFF/7iuct.FSSE202IMB2DT.rar
http://nitroflare.com/view/DE121EB9AA86CCF/7iuct.FSSE202IMB360C.rar
http://nitroflare.com/view/CC605F04E017FF5/7iuct.FSSE202IMB927F.rar
http://nitroflare.com/view/45B81C4B9EE9B14/7iuct.FSSE202PLL20G.rar
http://nitroflare.com/view/14B376E710A72B0/7iuct.FSSE202PLL407C.rar
http://nitroflare.com/view/D9C09B5C1AAC829/7iuct.FSSE202PLL963F.rar
http://nitroflare.com/view/87497148A7FD80A/7iuct.FSSE202TMW20G.rar
http://nitroflare.com/view/DDB661693255035/7iuct.FSSE202TMW377C.rar
http://nitroflare.com/view/A0ACDD77ACB297F/7iuct.FSSE202TMW938F.rar
http://nitroflare.com/view/35A0D3A21E3403D/7iuct.FSSE203BTR20G.rar
http://nitroflare.com/view/CE48CD574A486F6/7iuct.FSSE203BTR360C.rar
http://nitroflare.com/view/79C85F0EF92925D/7iuct.FSSE203BTR950F.rar
http://nitroflare.com/view/87523B8161D45EF/7iuct.FSSE214TG20G.rar
http://nitroflare.com/view/E8F9B18E74A6505/7iuct.FSSE214TG433C.rar
http://nitroflare.com/view/922890E59A20477/7iuct.FSSE214TG630F.rar
http://nitroflare.com/view/25B3E558762ECFE/7iuct.FSSE8803GH20G.rar
http://nitroflare.com/view/A363F11609DDD3D/7iuct.FSSE8803GH360C.rar
http://nitroflare.com/view/D8887E5FE297DA1/7iuct.FSSE8803GH908F.rar

rapidgator_net:
http://rapidgator.net/file/f154fc0dab5ffc79640b3ccd8d0b17f6/7iuct.FSSE191CHI20G.rar.html
http://rapidgator.net/file/859d52d1da46e2da37431685369d7d92/7iuct.FSSE191CHI550C.rar.html
http://rapidgator.net/file/78f0ace77ee115c8a1bd45fbef9d8e73/7iuct.FSSE191CHI883F.rar.html
http://rapidgator.net/file/a20711bea7d12e469b8312fe7ac960a9/7iuct.FSSE194STD20G.rar.html
http://rapidgator.net/file/6618804cc389ff0c9d78f21d2d1e08be/7iuct.FSSE194STD520C.rar.html
http://rapidgator.net/file/59e42530a828cb8217436a1e906a12ca/7iuct.FSSE194STD851F.rar.html
http://rapidgator.net/file/05bd9f69310d8b9193c52c9b0757d705/7iuct.FSSE197PHS20G.rar.html
http://rapidgator.net/file/bf5a930a61c909281242b3d4f6679996/7iuct.FSSE197PHS400C.rar.html
http://rapidgator.net/file/523d4a95865f264c411505592b1b3e15/7iuct.FSSE197PHS923F.rar.html
http://rapidgator.net/file/261c4777ff1e4dd757102dd0363e423e/7iuct.FSSE202IMB20G.rar.html
http://rapidgator.net/file/b184635ec262bac4e23a0a45c0224fe3/7iuct.FSSE202IMB2DT.rar.html
http://rapidgator.net/file/ba7f86a11be4dadffe5096dd8ecdd6ce/7iuct.FSSE202IMB360C.rar.html
http://rapidgator.net/file/a4cef87356af28ed57ad93bbddd1fd79/7iuct.FSSE202IMB927F.rar.html
http://rapidgator.net/file/9349e4c7e46d6c6a34b82fc9b40dc2e9/7iuct.FSSE202PLL20G.rar.html
http://rapidgator.net/file/42682f66c3abb65cef02a9a74215ed66/7iuct.FSSE202PLL407C.rar.html
http://rapidgator.net/file/525f1fc3b8c520d36003dcc68ff042ee/7iuct.FSSE202PLL963F.rar.html
http://rapidgator.net/file/85ed254854f28a5b7f5bf94ea31e8737/7iuct.FSSE202TMW20G.rar.html
http://rapidgator.net/file/470d09934fb7d39871f3d75772807fa0/7iuct.FSSE202TMW377C.rar.html
http://rapidgator.net/file/2aded018982d05eb4d8298e3f76a2b80/7iuct.FSSE202TMW938F.rar.html
http://rapidgator.net/file/daa52a2cb1fc9ab7cf9770960b332dac/7iuct.FSSE203BTR20G.rar.html
http://rapidgator.net/file/015eda16ef4054b7f29105f7fe66b0e4/7iuct.FSSE203BTR360C.rar.html
http://rapidgator.net/file/cc3cbea5c452878f44623cbe71a1ab08/7iuct.FSSE203BTR950F.rar.html
http://rapidgator.net/file/5bc943bc65a0bc1021a467502c396d38/7iuct.FSSE214TG20G.rar.html
http://rapidgator.net/file/9f34e1474ff933ce5843fc36c2c91e7b/7iuct.FSSE214TG433C.rar.html
http://rapidgator.net/file/ea1236e0b76fc67f41f7af6b527805aa/7iuct.FSSE214TG630F.rar.html
http://rapidgator.net/file/7501ee3e40ee00349599753a7942e0b1/7iuct.FSSE8803GH20G.rar.html
http://rapidgator.net/file/f289b7c336d78568f8c383304c26121c/7iuct.FSSE8803GH360C.rar.html
http://rapidgator.net/file/6ff6e9fc060d2dcc7cd4ef8dac6f992b/7iuct.FSSE8803GH908F.rar.html


Links are Interchangeable - No Password - Single Extraction
Direct Download

Tags: Original, Collection, Combined, Expanded

Comments
Name:*
E-Mail:*
Add Comments:
Enter Code: *