Download Now

Big Country - Fields Of Fire: The Ultimate Collection (2011)

Big Country - Fields Of Fire: The Ultimate Collection (2011)
2CD | EAC Rip | FLAC (Img) + Cue + Log ~ 1,08 Gb | MP3 CBR320 ~ 391 Mb
Scans Included (JPG, 300 dpi) | RAR 5% Recovery
Alternative Rock, New Wave, Pop Rock, Folk Rock | Spectrum Music/Universal Music #SPECXX2066

Big Country may never have reached the commercial highs of similarly structured outfits like the Waterboys and U2, but the Scottish rockers had all the ingredients needed for stadium domination. This two-disc U.K. collection from Spectrum dutifully chronicles the underrated Dunfermline, Fife-based outfit's nearly 20-year career, from the band's classic 1983 debut, The Crossing, to 1999's Driving to Damascus. Listeners who only know the group's two big international hits ("In a Big Country" and "Fields of Fire") will find in Fields of Fire: The Ultimate Collection a veritable treasure trove (as in 35 excellent remastered tracks) of anthemic modern rock with a rural twist, propelled in large part by the late Stuart Adamson's soaring, bagpipe-inspired guitar leads.

Track List CD1:

01. Fields Of Fire [03:30]
02. Wonderland [03:57]
03. In A Big Country [03:50]
04. Peace In Our Time [04:34]
05. Harvest Home [04:20]
06. You Dreamer [Live] [04:44]
07. Tall Ships Go [04:38]
08. Beautiful People [05:32]
09. Save Me [05:28]
10. King Of Emotion [04:51]
11. Driving To Damascus [03:58]
12. Chance [04:38]
13. Come Back To Me [04:55]
14. Eiledon [05:37]
15. Restless Natives [03:42]
16. Ships [03:58]
17. Angle Park [04:07]
18. Fragile Thing [03:43]

EAC Log


Exact Audio Copy V1.0 beta 3 from 29. August 2011

EAC extraction logfile from 27. April 2015, 19:41

Big Country / Fields Of Fire: The Ultimate Collection [CD1]

Used drive : hp DVDRAM GT31L Adapter: 0 ID: 0

Read mode : Secure
Utilize accurate stream : Yes
Defeat audio cache : Yes
Make use of C2 pointers : No

Read offset correction : 103
Overread into Lead-In and Lead-Out : No
Fill up missing offset samples with silence : Yes
Delete leading and trailing silent blocks : No
Null samples used in CRC calculations : Yes
Used interface : Native Win32 interface for Win NT & 2000

Used output format : User Defined Encoder
Selected bitrate : 1024 kBit/s
Quality : High
Add ID3 tag : Yes
Command line compressor : C:\Program Files (x86)\Exact Audio Copy\Flac\flac.exe
Additional command line options : -V -8 -T "Date=%year%" -T "Genre=%genre%" %source%

TOC of the extracted CD

Track | Start | Length | Start sector | End sector
-----------------------------
1 | 0:00.00 | 3:29.11 | 0 | 15685
2 | 3:29.11 | 3:56.46 | 15686 | 33431
3 | 7:25.57 | 3:49.23 | 33432 | 50629
4 | 11:15.05 | 4:33.45 | 50630 | 71149
5 | 15:48.50 | 4:19.22 | 71150 | 90596
6 | 20:07.72 | 4:43.72 | 90597 | 111893
7 | 24:51.69 | 4:37.01 | 111894 | 132669
8 | 29:28.70 | 5:31.41 | 132670 | 157535
9 | 35:00.36 | 5:27.53 | 157536 | 182113
10 | 40:28.14 | 4:50.19 | 182114 | 203882
11 | 45:18.33 | 3:57.33 | 203883 | 221690
12 | 49:15.66 | 4:37.42 | 221691 | 242507
13 | 53:53.33 | 4:54.09 | 242508 | 264566
14 | 58:47.42 | 5:36.61 | 264567 | 289827
15 | 64:24.28 | 3:41.42 | 289828 | 306444
16 | 68:05.70 | 3:57.06 | 306445 | 324225
17 | 72:03.01 | 4:06.65 | 324226 | 342740
18 | 76:09.66 | 3:42.70 | 342741 | 359460

Range status and errors

Selected range

Filename E:\Rips\Big Country - Fields Of Fire - The Ultimate Collection [CD1].wav

Peak level 100.0 %
Extraction speed 2.3 X
Range quality 100.0 %
Test CRC 6A91C653
Copy CRC 6A91C653
Copy OK

No errors occurred


AccurateRip summary

Track 1 accurately ripped (confidence 33) [4018C692] (AR v2)
Track 2 accurately ripped (confidence 33) [602DC07C] (AR v2)
Track 3 accurately ripped (confidence 33) [8BEDC833] (AR v2)
Track 4 accurately ripped (confidence 33) [860E2D3E] (AR v2)
Track 5 accurately ripped (confidence 33) [D59FF567] (AR v2)
Track 6 accurately ripped (confidence 33) [3B293253] (AR v2)
Track 7 accurately ripped (confidence 33) [01315E70] (AR v2)
Track 8 accurately ripped (confidence 33) [ADAAF58B] (AR v2)
Track 9 accurately ripped (confidence 33) [37D98CEE] (AR v2)
Track 10 accurately ripped (confidence 32) D05614A (AR v2)
Track 11 accurately ripped (confidence 33) [F27084AD] (AR v2)
Track 12 accurately ripped (confidence 33) [38D6DF60] (AR v2)
Track 13 accurately ripped (confidence 33) [D3DA1E0D] (AR v2)
Track 14 accurately ripped (confidence 33) [D484C97D] (AR v2)
Track 15 accurately ripped (confidence 33) [5DB15DF9] (AR v2)
Track 16 accurately ripped (confidence 33) [778647D7] (AR v2)
Track 17 accurately ripped (confidence 33) [0FD44406] (AR v2)
Track 18 accurately ripped (confidence 32) [6F4FBEB9] (AR v2)

All tracks accurately ripped

End of status report

==== Log checksum 9ED1F5BAE636539C3A456E2C1B29EEEC1822F26F58E2E6ADE4EE032BBEDB1A93 ====

DR Log


foobar2000 1.2.6 / Dynamic Range Meter 1.1.1
log date: 2016-04-15 11:25:26

----------------------------------------
Analyzed: Big Country / Fields Of Fire: The Ultimate Collection [CD1]
----------------------------------------

DR Peak RMS Duration Track
----------------------------------------
DR8 0.00 dB -9.86 dB 3:29 01-Fields Of Fire
DR8 0.00 dB -9.85 dB 3:57 02-Wonderland
DR8 0.00 dB -9.18 dB 3:49 03-In A Big Country
DR10 0.00 dB -11.91 dB 4:34 04-Peace In Our Time
DR9 0.00 dB -10.45 dB 4:19 05-Harvest Home
DR9 0.00 dB -9.71 dB 4:44 06-You Dreamer [Live]
DR8 0.00 dB -8.41 dB 4:37 07-Tall Ships Go
DR10 0.00 dB -10.58 dB 5:32 08-Beautiful People
DR9 0.00 dB -11.34 dB 5:28 09-Save Me
DR9 0.00 dB -10.57 dB 4:50 10-King Of Emotion
DR8 0.00 dB -9.21 dB 3:57 11-Driving To Damascus
DR8 0.00 dB -10.32 dB 4:38 12-Chance
DR10 0.00 dB -11.40 dB 4:54 13-Come Back To Me
DR9 0.00 dB -11.38 dB 5:37 14-Eiledon
DR8 0.00 dB -9.64 dB 3:42 15-Restless Natives
DR12 0.00 dB -14.89 dB 3:57 16-Ships
DR8 0.00 dB -9.90 dB 4:07 17-Angle Park
DR9 0.00 dB -10.50 dB 3:43 18-Fragile Thing
----------------------------------------

Number of tracks: 18
Official DR value: DR9

Samplerate: 44100 Hz
Channels: 2
Bits per sample: 16
Bitrate: 936 kbps
Codec: FLAC
================================================================================

CUETools Log


[CUETools log; Date: 15.04.2016 11:25:31; Version: 2.1.5]
[CTDB TOCID: N26rtTqhqmYNBgzVsPRHtbVaS.g-] found.
Track | CTDB Status
1 | (27/27) Accurately ripped
2 | (27/27) Accurately ripped
3 | (27/27) Accurately ripped
4 | (27/27) Accurately ripped
5 | (27/27) Accurately ripped
6 | (27/27) Accurately ripped
7 | (27/27) Accurately ripped
8 | (27/27) Accurately ripped
9 | (27/27) Accurately ripped
10 | (26/27) Accurately ripped
11 | (27/27) Accurately ripped
12 | (27/27) Accurately ripped
13 | (27/27) Accurately ripped
14 | (27/27) Accurately ripped
15 | (27/27) Accurately ripped
16 | (27/27) Accurately ripped
17 | (27/27) Accurately ripped
18 | (26/27) Accurately ripped
[AccurateRip ID: 0033e563-02bb6f31-fc12b812] found.
Track [ CRC | V2 ] Status
01 [4b3bf5b0|4018c692] (04+39/43) Accurately ripped
02 [2ad4efc0|602dc07c] (04+39/43) Accurately ripped
03 [fbbd9263|8bedc833] (04+39/43) Accurately ripped
04 [81f0ac44|860e2d3e] (04+39/43) Accurately ripped
05 [f2ea9426|d59ff567] (04+39/43) Accurately ripped
06 [77f7d33f|3b293253] (04+39/43) Accurately ripped
07 [dd2ace41|01315e70] (04+39/43) Accurately ripped
08 [e60c6cff|adaaf58b] (04+39/43) Accurately ripped
09 [880e74de|37d98cee] (04+39/43) Accurately ripped
10 [c6b2ba8d|bd05614a] (04+38/42) Accurately ripped
11 [c7e5e9b7|f27084ad] (04+39/43) Accurately ripped
12 [2cfd7f80|38d6df60] (04+39/43) Accurately ripped
13 [9cc85a23|d3da1e0d] (04+39/43) Accurately ripped
14 [99387094|d484c97d] (04+39/43) Accurately ripped
15 [4cae9915|5db15df9] (04+39/43) Accurately ripped
16 [e9c7bbaa|778647d7] (04+39/43) Accurately ripped
17 [67358b27|0fd44406] (04+39/43) Accurately ripped
18 [2293ab71|6f4fbeb9] (04+38/42) Accurately ripped

Track Peak [ CRC32 ] [W/O NULL] [ LOG ]
- 100,0 [6A91C653] [4E3B7BDB] CRC32
01 100,0 [A470669C] [8FAC1F23]
02 100,0 [CC3D48B5] [CD75038E]
03 100,0 [1B6420A8] [EEB4B23A]
04 100,0 [694E9141] [E5912E4D]
05 100,0 [5826FB69] [7B601510]
06 100,0 [155FF480] [06816DD9]
07 100,0 [E489B71D] [F8408F72]
08 100,0 [25E309C0] [EAB966CB]
09 100,0 [4855658E] [09E4E319]
10 100,0 [A55E748D] [E1EFFA39]
11 100,0 [0501317D] [5067CDC8]
12 100,0 [81B8AB11] [D10DC5B6]
13 100,0 [AB8DD737] [3EEE9D6A]
14 100,0 [D276F931] [349BD1D7]
15 100,0 3BC025D [896D0057]
16 100,0 [C1776FD0] [E7277F13]
17 100,0 [DAC4638B] [E27562BB]
18 100,0 [5C18EF08] [0442ACD1]


Track List CD1:

01. East Of Eden [04:29]
02. Steeltown [04:39]
03. Look Away [04:26]
04. Republican Party Reptile [04:02]
05. I'm Not Ashamed [04:12]
06. One Great Thing [04:02]
07. Where The Rose Is Sown [04:08]
08. Heart Of The World [03:44]
09. 1000 Stars [03:55]
10. The Seer [05:22]
11. The Teacher [04:07]
12. God's Great Mistake [03:09]
13. Never Take Your Place [04:01]
14. Mary [03:54]
15. Porroh Man [Live] [06:45]
16. Dive Into Me [05:04]
17. Fields Of Fire [Live] [05:13]

EAC Log


Exact Audio Copy V1.0 beta 3 from 29. August 2011

EAC extraction logfile from 27. April 2015, 18:23

Big Country / Fields Of Fire: The Ultimate Collection [CD2]

Used drive : hp DVDRAM GT31L Adapter: 0 ID: 0

Read mode : Secure
Utilize accurate stream : Yes
Defeat audio cache : Yes
Make use of C2 pointers : No

Read offset correction : 103
Overread into Lead-In and Lead-Out : No
Fill up missing offset samples with silence : Yes
Delete leading and trailing silent blocks : No
Null samples used in CRC calculations : Yes
Used interface : Native Win32 interface for Win NT & 2000

Used output format : User Defined Encoder
Selected bitrate : 1024 kBit/s
Quality : High
Add ID3 tag : Yes
Command line compressor : C:\Program Files (x86)\Exact Audio Copy\Flac\flac.exe
Additional command line options : -V -8 -T "Date=%year%" -T "Genre=%genre%" %source%

TOC of the extracted CD

Track | Start | Length | Start sector | End sector
-----------------------------
1 | 0:00.00 | 4:28.36 | 0 | 20135
2 | 4:28.36 | 4:38.64 | 20136 | 41049
3 | 9:07.25 | 4:25.11 | 41050 | 60935
4 | 13:32.36 | 4:01.03 | 60936 | 79013
5 | 17:33.39 | 4:11.74 | 79014 | 97912
6 | 21:45.38 | 4:01.54 | 97913 | 116041
7 | 25:47.17 | 4:07.41 | 116042 | 134607
8 | 29:54.58 | 3:43.73 | 134608 | 151405
9 | 33:38.56 | 3:54.67 | 151406 | 169022
10 | 37:33.48 | 5:21.03 | 169023 | 193100
11 | 42:54.51 | 4:06.69 | 193101 | 211619
12 | 47:01.45 | 3:08.27 | 211620 | 225746
13 | 50:09.72 | 4:00.35 | 225747 | 243781
14 | 54:10.32 | 3:53.03 | 243782 | 261259
15 | 58:03.35 | 6:44.07 | 261260 | 291566
16 | 64:47.42 | 5:03.08 | 291567 | 314299
17 | 69:50.50 | 5:12.31 | 314300 | 337730

Range status and errors

Selected range

Filename E:\Rips\Big Country - Fields Of Fire - The Ultimate Collection [CD2].wav

Peak level 100.0 %
Extraction speed 2.3 X
Range quality 100.0 %
Test CRC 94D8DD72
Copy CRC 94D8DD72
Copy OK

No errors occurred


AccurateRip summary

Track 1 accurately ripped (confidence 27) [383F2EEB] (AR v2)
Track 2 accurately ripped (confidence 27) [84AFFF10] (AR v2)
Track 3 accurately ripped (confidence 27) [9F0AE71D] (AR v2)
Track 4 accurately ripped (confidence 27) [8FBED3D9] (AR v2)
Track 5 accurately ripped (confidence 26) [CF31610A] (AR v2)
Track 6 accurately ripped (confidence 27) [5AFE9901] (AR v2)
Track 7 accurately ripped (confidence 26) [0C4A1B1F] (AR v2)
Track 8 accurately ripped (confidence 27) [E43A5743] (AR v2)
Track 9 accurately ripped (confidence 27) [DC4898D1] (AR v2)
Track 10 accurately ripped (confidence 27) [4FAF83B4] (AR v2)
Track 11 accurately ripped (confidence 26) [2282D9E7] (AR v2)
Track 12 accurately ripped (confidence 26) [2C0297EC] (AR v2)
Track 13 accurately ripped (confidence 27) [03FF34C0] (AR v2)
Track 14 accurately ripped (confidence 26) [E13BB160] (AR v2)
Track 15 accurately ripped (confidence 23) [59CCBA6C] (AR v2)
Track 16 accurately ripped (confidence 23) [C537FFDF] (AR v2)
Track 17 accurately ripped (confidence 26) [D408B74D] (AR v2)

All tracks accurately ripped

End of status report

==== Log checksum 373FAA8E6D96E699FAE5BF6193CB51084B39582ABCAEDC50743E59FB09B1DB6B ====

DR Log


foobar2000 1.2.6 / Dynamic Range Meter 1.1.1
log date: 2016-04-15 11:24:43

----------------------------------------
Analyzed: Big Country / Fields Of Fire: The Ultimate Collection [CD2]
----------------------------------------

DR Peak RMS Duration Track
----------------------------------------
DR9 0.00 dB -10.16 dB 4:28 01-East Of Eden
DR8 0.00 dB -9.80 dB 4:39 02-Steeltown
DR9 0.00 dB -10.94 dB 4:25 03-Look Away
DR9 0.00 dB -9.94 dB 4:01 04-Republican Party Reptile
DR8 0.00 dB -9.49 dB 4:12 05-I'm Not Ashamed
DR9 0.00 dB -9.65 dB 4:02 06-One Great Thing
DR8 0.00 dB -9.23 dB 4:08 07-Where The Rose Is Sown
DR9 0.00 dB -10.32 dB 3:44 08-Heart Of The World
DR8 0.00 dB -9.61 dB 3:55 09-1000 Stars
DR9 0.00 dB -10.24 dB 5:21 10-The Seer
DR8 0.00 dB -9.24 dB 4:07 11-The Teacher
DR9 0.00 dB -9.69 dB 3:08 12-God's Great Mistake
DR7 0.00 dB -7.83 dB 4:00 13-Never Take Your Place
DR10 0.00 dB -11.45 dB 3:53 14-Mary
DR8 0.00 dB -8.32 dB 6:44 15-Porroh Man [Live]
DR6 0.00 dB -8.11 dB 5:03 16-Dive Into Me
DR7 0.00 dB -8.52 dB 5:12 17-Fields Of Fire [Live]
----------------------------------------

Number of tracks: 17
Official DR value: DR8

Samplerate: 44100 Hz
Channels: 2
Bits per sample: 16
Bitrate: 946 kbps
Codec: FLAC
================================================================================

CUETools Log


[CUETools log; Date: 15.04.2016 11:24:48; Version: 2.1.5]
[CTDB TOCID: 6p1jpZgXyvploI1cFvwo.pgn3Ig-] found.
Track | CTDB Status
1 | (25/25) Accurately ripped
2 | (25/25) Accurately ripped
3 | (25/25) Accurately ripped
4 | (25/25) Accurately ripped
5 | (23/25) Accurately ripped
6 | (25/25) Accurately ripped
7 | (25/25) Accurately ripped
8 | (25/25) Accurately ripped
9 | (25/25) Accurately ripped
10 | (25/25) Accurately ripped
11 | (23/25) Accurately ripped
12 | (23/25) Accurately ripped
13 | (24/25) Accurately ripped
14 | (23/25) Accurately ripped
15 | (19/25) Accurately ripped
16 | (20/25) Accurately ripped
17 | (23/25) Accurately ripped
[AccurateRip ID: 002d0074-0239e74d-f0119711] found.
Track [ CRC | V2 ] Status
01 [e220e422|383f2eeb] (03+33/36) Accurately ripped
02 [29f1757e|84afff10] (03+33/36) Accurately ripped
03 [08f07eb1|9f0ae71d] (03+33/36) Accurately ripped
04 [11691da0|8fbed3d9] (03+31/34) Accurately ripped
05 [40c11496|cf31610a] (03+30/33) Accurately ripped
06 [d76b751c|5afe9901] (03+33/36) Accurately ripped
07 [33f41e68|0c4a1b1f] (03+32/35) Accurately ripped
08 [52927462|e43a5743] (03+33/36) Accurately ripped
09 [ce2396dd|dc4898d1] (03+33/36) Accurately ripped
10 [0f2fabb9|4faf83b4] (03+33/36) Accurately ripped
11 [d8fe2206|2282d9e7] (03+30/33) Accurately ripped
12 [613d796d|2c0297ec] (03+30/33) Accurately ripped
13 [4ec5daf8|03ff34c0] (03+31/34) Accurately ripped
14 [71c17957|e13bb160] (03+30/33) Accurately ripped
15 [0113a28f|59ccba6c] (03+27/30) Accurately ripped
16 [e37b9f3e|c537ffdf] (03+27/30) Accurately ripped
17 [c689f4ba|d408b74d] (02+31/33) Accurately ripped

Track Peak [ CRC32 ] [W/O NULL] [ LOG ]
- 100,0 [94D8DD72] [3112AB72] CRC32
01 100,0 [9B686B88] [0E45342C]
02 100,0 [C05B952D] 4F470C6
03 100,0 92F5ABB [F0B98B9A]
04 100,0 [83AFE557] 7FAF44C
05 100,0 [013541ED] [F6BB4DC0]
06 100,0 [FDEE1159] [AB80363A]
07 100,0 [E3EA3E40] [39FE9E9C]
08 100,0 [8564B988] [6CA971BD]
09 100,0 [E823EFF1] E5F32EC
10 100,0 [AA712BC4] [2D5D280B]
11 100,0 [2192FF3B] [7128E2A7]
12 100,0 [DAE299FF] [1E309FEA]
13 100,0 [DA636468] [8F4D5538]
14 100,0 [66E28B0C] [5C694A67]
15 100,0 [2A5C85C2] [98EB8444]
16 100,0 [AB70EC54] [7030A1A1]
17 100,0 [724E1606] [9BD9ACF1]
Download link:

Buy Premium To Support Me & Get Resumable Support & Max Speed:



Links are Interchangeable - No Password - Single Extraction
Direct Download

Tags: Country, Fields, Ultimate, Collection

Comments
Name:*
E-Mail:*
Add Comments:
Enter Code: *