Download Now

Claus Ogerman/Michael Brecker - Cityscape (1982) {1995 Warner Archives CD}

Claus Ogerman/Michael Brecker - Cityscape (1982) {Warner Archvies}
EAC Rip | FLAC with CUE and log | scans | 273 mb
MP3 CBR 320kbps | RAR | 128 mb
Genre: jazz

Cityscape is the 1982 collaborative album between Claus Ogerman and Michael Brecker. This was reissued by Warner Archives on compact disc in 1995, remastered by Lee Herschberg.
Hearing a truly gifted musician at their pinnacle is almost a spiritual experiance. This album, and particularly the track 'In the presence and absence of each other Part 1' defines the epitomy of musical acheivment in my eyes.

Brecker's reputation as the premier saxophonist of his time was forged on this album. Although I could go on for paragraphs justifying this statement, I'll let the music speak for itself. Lifting with emotion, montaged with endless creativity, and raising the bar on technique this album is clearly the work of two exceptional artists at their mesmerising best.

I have no more words, for I am still after years in awe of this beautiful, moving creation.....


Claus Ogerman/Michael Brecker - Cityscape (1982) {1995 Warner Archives CD}

1. Cityscape
2. Habanera
3. Nightwings
4. In The Presence And Absence Of Each Other (Part 1)
5. In The Presence And Absence Of Each Other (Part 2)
6. In The Presence And Absence Of Each Other (Part 3)

--
Composed, arranged, and conducted by Claus Ogerman
Concertmaster: David Nadien
Uncredited: a 64-member reed and string section

Michael Brecker-tenor saxophone

RHYTHM SECTION:
Warren Bernhardt-keyboards
Steve Gadd-drums
Eddie Gomez-bass on "Nightwings" and "Cityscape"
Marcus Miller-bass on "In The Presence And Absence Of Each Other (Parts 1, 2 & 3)" and "Habanera"
John Tropea-guitar on "Habanera"
Buzz Feiten-guitar on "In The Presence And Absence Of Each Other (Part 1)"
Paulinho da Costa-percussion on "In The Presence And Absence Of Each Other (Part 1)" and "Habanera"

Produced by Tommy LiPuma
Recorded and mixed by Al Schmitt
Assistant engineers: Hugh Davies, Don Koldon, Jason Corsaro, Don Wershba and Michael Christopher
Recorded at The Power Station and Mediasound, New York; Sound Labs and Capitol Recording, Hollywood
Original LP mastered at The Mastering Lab by Mike Reese
Digital mastering by Lee Herschberg


Claus Ogerman/Michael Brecker - Cityscape (1982) {1995 Warner Archives CD}


EAC Log


EAC extraction logfile from 25. July 2007, 19:23 for CD
Claus Ogerman/Michael Brecker / Cityscape

Used drive : LITE-ON DVDRW SOHW-1633S Adapter: 0 ID: 0
Read mode : Secure with NO C2, accurate stream, disable cache
Read offset correction : 12
Overread into Lead-In and Lead-Out : No

Used output format : Internal WAV Routines
44.100 Hz; 16 Bit; Stereo

Other options :
Fill up missing offset samples with silence : Yes
Delete leading and trailing silent blocks : No
Installed external ASPI interface

Track 1
Filename D:\FLAC\Claus Ogerman, Michael Brecker - Cityscape (1982) [FLAC] {Warner Archvies}\01 - Cityscape.wav

Pre-gap length 0:00:02.42

Peak level 84.2 %
Track quality 100.0 %
Test CRC 8B146848
Copy CRC 8B146848
Copy OK

Track 2
Filename D:\FLAC\Claus Ogerman, Michael Brecker - Cityscape (1982) [FLAC] {Warner Archvies}\02 - Habanera.wav

Pre-gap length 0:00:00.24

Peak level 79.4 %
Track quality 99.9 %
Test CRC 328E9556
Copy CRC 328E9556
Copy OK

Track 3
Filename D:\FLAC\Claus Ogerman, Michael Brecker - Cityscape (1982) [FLAC] {Warner Archvies}\03 - Nightwings.wav

Pre-gap length 0:00:01.24

Peak level 82.1 %
Track quality 100.0 %
Test CRC 0DF375FD
Copy CRC 0DF375FD
Copy OK

Track 4
Filename D:\FLAC\Claus Ogerman, Michael Brecker - Cityscape (1982) [FLAC] {Warner Archvies}\04 - In The Presence And Absence Of Each Other (Part 1).wav

Pre-gap length 0:00:02.88

Peak level 100.0 %
Track quality 100.0 %
Test CRC 61D2E035
Copy CRC 61D2E035
Copy OK

Track 5
Filename D:\FLAC\Claus Ogerman, Michael Brecker - Cityscape (1982) [FLAC] {Warner Archvies}\05 - In The Presence And Absence Of Each Other (Part 2).wav

Pre-gap length 0:00:00.01

Peak level 100.0 %
Track quality 100.0 %
Test CRC 6CB2918F
Copy CRC 6CB2918F
Copy OK

Track 6
Filename D:\FLAC\Claus Ogerman, Michael Brecker - Cityscape (1982) [FLAC] {Warner Archvies}\06 - In The Presence And Absence Of Each Other (Part 3).wav

Pre-gap length 0:00:00.01

Peak level 100.0 %
Track quality 100.0 %
Test CRC 6444CAE2
Copy CRC 6444CAE2
Copy OK

No errors occured

End of status report
Download link:

Buy Premium To Support Me & Get Resumable Support & Max Speed:



Links are Interchangeable - No Password - Single Extraction
Direct Download

Tags: Ogerman, Brecker, Cityscape, Warner, Archives

Comments
Name:*
E-Mail:*
Add Comments:
Enter Code: *