Download Now

Bobbi Humphrey - Blacks And Blues (1974) [1999, Remastered Reissue]

Bobbi Humphrey - Blacks And Blues (1974) [1999, Remastered Reissue]
Jazz, Soul-Jazz, Jazz-Funk | EAC Rip | FLAC, Img+CUE+LOG+Full Scans-300dpi (PNG) | 39:43 Min | 302,27 Mb
Label: Blue Note (USA) | Released: 1999, February, 9

Bobbi Humphrey scored her biggest hit with her third album Blacks and Blues, an utterly delightful jazz-funk classic that helped make her a sensation at Montreux. If it sounds a lot like Donald Byrd's post-Black Byrd output, it's no accident; brothers Larry and Fonce Mizell have their fingerprints all over the album, and as on their work with Byrd, Larry handles all the composing and most of the arranging and production duties.

Tracklist:

01. "Chicago, Damn" (06:33)
(Larry Mizell)
02. "Harlem River Drive" (04:09)
(Larry Mizell)
03. "Just A Love Child" (06:35)
(Larry Mizell)
04. "Blacks And Blues" (04:39)
(Larry Mizell)
05. "Jasper Country Man" (05:16)
(Larry Mizell)
06. "Baby's Gone" (08:49)
(Larry Mizell)

EAC log


Exact Audio Copy V1.0 beta 3 from 29. August 2011

EAC extraction logfile from 9. January 2015, 23:21

Bobbi Humphrey / Blacks and Blues

Used drive : Memorex 52MAXX 3252AJ1 Adapter: 1 ID: 0

Read mode : Secure
Utilize accurate stream : Yes
Defeat audio cache : Yes
Make use of C2 pointers : No

Read offset correction : 6
Overread into Lead-In and Lead-Out : No
Fill up missing offset samples with silence : Yes
Delete leading and trailing silent blocks : No
Null samples used in CRC calculations : Yes
Used interface : Native Win32 interface for Win NT & 2000

Used output format : User Defined Encoder
Selected bitrate : 1024 kBit/s
Quality : High
Add ID3 tag : No
Command line compressor : C:\Program Files (x86)\Exact Audio Copy\Flac\flac.exe
Additional command line options : %ishigh%-V -p -l 12 -b 4096 -m -e -r 8%ishigh%%islow%-5%islow% -replay-gain -T "ARTIST=%artist%" -T "ALBUM=%albumtitle%" -T "TITLE=%title%" -T "DATE=%year%" -T "TRACKNUMBER=%tracknr%" -T "GENRE=%genre%" -T "ENSEMBLE=%albuminterpret%" -T "ALBUMARTIST=%albumartist%" -T "COMPOSER=%albumcomposer%" -T "DISCNUMBER=%cdnumber%" -T "TOTALDISCS=%totalcds%" -T "TOTALTRACKS=%numtracks%" -T "SOURCEMEDIA=CD" -T "COMMENT=%comment%" %hascover%-T "PICTURE=%coverfile%"%hascover% %source%

TOC of the extracted CD

Track | Start | Length | Start sector | End sector
-----------------------------
1 | 0:00.00 | 6:33.02 | 0 | 29476
2 | 6:33.02 | 7:50.48 | 29477 | 64774
3 | 14:23.50 | 6:35.32 | 64775 | 94431
4 | 20:59.07 | 4:39.23 | 94432 | 115379
5 | 25:38.30 | 5:16.27 | 115380 | 139106
6 | 30:54.57 | 8:48.73 | 139107 | 178779

Range status and errors

Selected range

Filename C:\Users\[email protected]\Music\Archives\Rips\Bobbi Humphrey - Blacks and Blues.wav

Peak level 98.8 %
Extraction speed 5.8 X
Range quality 100.0 %
Test CRC F6D1F7CA
Copy CRC F6D1F7CA
Copy OK

No errors occurred


AccurateRip summary

Track 1 accurately ripped (confidence 3) [8C9A3147] (AR v2)
Track 2 accurately ripped (confidence 3) [A72BACA5] (AR v2)
Track 3 accurately ripped (confidence 3) [8D08E063] (AR v2)
Track 4 accurately ripped (confidence 3) [2A59AA09] (AR v2)
Track 5 accurately ripped (confidence 3) [D6F483D4] (AR v2)
Track 6 accurately ripped (confidence 3) [E4121A96] (AR v2)

All tracks accurately ripped

End of status report

-- CUETools DB Plugin V2.1.4

[CTDB TOCID: fw.4v97FASYVQ0z0PeGYEMgiwkA-] found
Submit result: already submitted
Track | CTDB Status
1 | ( 4/13) Accurately ripped
2 | ( 4/13) Accurately ripped
3 | ( 4/13) Accurately ripped
4 | ( 4/13) Accurately ripped
5 | ( 4/13) Accurately ripped
6 | ( 4/13) Accurately ripped

==== Log checksum 3039EA858FD5DF6CB52B76F3E66D2A07339D6700336C45C55714E288F5F81DF8 ====

Dynamic Range Meter log


foobar2000 1.3.9 / Dynamic Range Meter 1.1.1
log date: 2016-04-11 00:22:57

----------------------------------------
Analyzed: Bobbi Humphrey / Blacks and Blues
----------------------------------------

DR Peak RMS Duration Track
----------------------------------------
DR10 -0.10 dB -12.45 dB 6:33 01-Chicago, Damn
DR11 -0.10 dB -13.96 dB 7:51 02-Harlem River Drive
DR10 -0.10 dB -12.81 dB 6:35 03-Just A Love Child
DR12 -0.10 dB -14.32 dB 4:39 04-Blacks and Blues
DR13 -0.10 dB -15.32 dB 5:16 05-Jasper Country Man
DR11 -0.10 dB -14.16 dB 8:49 06-Baby's Gone
----------------------------------------

Number of tracks: 6
Official DR value: DR11

Samplerate: 44100 Hz
Channels: 2
Bits per sample: 16
Bitrate: 899 kbps
Codec: FLAC
================================================================================


password: BlondStyle
Download link:

Buy Premium To Support Me & Get Resumable Support & Max Speed:



Links are Interchangeable - No Password - Single Extraction
Direct Download

Tags: Humphrey, Blacks, Remastered, Reissue

Comments
Name:*
E-Mail:*
Add Comments:
Enter Code: *