Download Now

Beastie Boys - Sure Shot (US CD5) (1994) {Grand Royal}

Beastie Boys - Sure Shot (US CD5) (1994) {Grand Royal}
EAC Rip | FLAC with CUE and log | scans | 138 mb
MP3 CBR 320kbps | RAR | 54 mb
Genre: hip-hop, rap

Sure Shot is the second single the Beastie Boys released for their 1994 album Ill Communication. A Grand Royal/Capitol release, this features four different mixes of the title track plus three solid non-LP tracks.
Beastie Boys - Sure Shot (US CD5) (1994) {Grand Royal}

1. Sure Shot (LP Version)
2. Sure Shot (Large Professor Remix)
3. Mullet Head
4. The Vibes
5. Sure Shot (Nardone Mix)
6. Son Of Neck Bone
7. Sure Shot (European B-Boy Mix)
--
Produced by Beastie Boys & Mario Caldato Jr.
Engineered by Mario Caldato Jr.
Recorded and mixed at G-Son Studios, with the parquet floor, Atwater Village, CA and Tin Pan Alley, New York, NY
Assistant engineer: Setley

Track 2 remixed by The Large Professor for Paul Sea Productions at Greene Street Recording, NYC
Remix engineer: Jamey Staub

Track 5 additional production and remix by Mike Nardone and Dred Scott

Track 7 remixed by The Prunes at the No Studio Whatsoever Studio
Remix engineer: Sjoller
Scratches by Peder (1/3 of The Prunes)

Mastered at Futuredisc by Tom Baker


Beastie Boys - Sure Shot (US CD5) (1994) {Grand Royal}


EAC Log


EAC extraction logfile from 24. February 2007, 14:28 for CD
Beastie Boys / Sure Shot (US CD5)

Used drive : LITE-ON DVDRW SOHW-1633S Adapter: 0 ID: 0
Read mode : Secure with NO C2, accurate stream, disable cache
Read offset correction : 12
Overread into Lead-In and Lead-Out : No

Used output format : Internal WAV Routines
44.100 Hz; 16 Bit; Stereo

Other options :
Fill up missing offset samples with silence : Yes
Delete leading and trailing silent blocks : No
Installed external ASPI interface

Track 1
Filename D:\FLAC\Beastie Boys - Sure Shot (US CD5) (1994) [FLAC]\01 - Sure Shot (LP Version).wav

Pre-gap length 0:00:02.00

Peak level 97.0 %
Track quality 99.9 %
Test CRC 26E58EC4
Copy CRC 26E58EC4
Copy OK

Track 2
Filename D:\FLAC\Beastie Boys - Sure Shot (US CD5) (1994) [FLAC]\02 - Sure Shot (Large Professor Remix).wav

Pre-gap length 0:00:01.29

Peak level 97.7 %
Track quality 100.0 %
Test CRC 7DE8BBAE
Copy CRC 7DE8BBAE
Copy OK

Track 3
Filename D:\FLAC\Beastie Boys - Sure Shot (US CD5) (1994) [FLAC]\03 - Mullet Head.wav

Pre-gap length 0:00:01.30

Peak level 81.0 %
Track quality 100.0 %
Test CRC F026B342
Copy CRC F026B342
Copy OK

Track 4
Filename D:\FLAC\Beastie Boys - Sure Shot (US CD5) (1994) [FLAC]\04 - The Vibes.wav

Peak level 97.7 %
Track quality 100.0 %
Test CRC 8679546C
Copy CRC 8679546C
Copy OK

Track 5
Filename D:\FLAC\Beastie Boys - Sure Shot (US CD5) (1994) [FLAC]\05 - Sure Shot (Nardone Mix).wav

Pre-gap length 0:00:01.26

Peak level 97.7 %
Track quality 100.0 %
Test CRC 0F2EB259
Copy CRC 0F2EB259
Copy OK

Track 6
Filename D:\FLAC\Beastie Boys - Sure Shot (US CD5) (1994) [FLAC]\06 - Son Of Neck Bone.wav

Pre-gap length 0:00:01.26

Peak level 100.0 %
Track quality 99.9 %
Test CRC 54CCF8B0
Copy CRC 54CCF8B0
Copy OK

Track 7
Filename D:\FLAC\Beastie Boys - Sure Shot (US CD5) (1994) [FLAC]\07 - Sure Shot (European B-Boy Mix).wav

Pre-gap length 0:00:01.26

Peak level 97.7 %
Track quality 100.0 %
Test CRC 5CCC22FC
Copy CRC 5CCC22FC
Copy OK

No errors occured

End of status report
Download link:

Buy Premium To Support Me & Get Resumable Support & Max Speed:



Links are Interchangeable - No Password - Single Extraction
Direct Download

Tags: Beastie

Comments
Name:*
E-Mail:*
Add Comments:
Enter Code: *