Download Now

Endless - The Truth, The Chaos, The Insanity (2016) {Japanese Edition}

Endless - The Truth, The Chaos, The Insanity (2016)
EAC Rip | FLAC (Img) + Cue + Log ~ 518 Mb | MP3 CBR320 ~ 161 Mb
Scans (JPG, 600 dpi) ~ 111 Mb | RAR 5% Recovery
Progressive Metal | Avalon #MICP-11278

The Year? 1995, the band? Endless, this is the story so far... Sérgio Sanchez (Drums) along with Cristiano Moura (Guitars) and Gustavo Di Pádua (Guitars and Vocals) formed Endless. Soon after this, Reinaldo Araújo (Bass) joined the band and in 1996 the band found on Vitor Veiga (Vocals) the voice that would give shape and emotion to their songs, and released the Demo Tape "Dreams", also in 1996, a few months later, Marcio Brito (Keyboards) was invited to joined the band to bring on the atmosphere for their newborn creations and complete the team...

Track List:

01. A New Sunrise [01:03]
02. The Code Of Light [05:03]
03. Will Of Destiny [05:48]
04. The Truth, The Chaos, The Insanity [06:48]
05. Black Veil Of Madness [04:48]
06. Veins Of Blood [06:38]
07. Save Me From Myself [05:54]
08. Lady Of The Lake [05:39]
09. Under The Sun [04:40]
10. Puppets On A Stage [04:40]
11. A World Without Fantasy [07:18]
12. Celestial Dreams [05:47]
13. The Dawn Of The Red Sun (Bonus Track) [02:59]

Personnel:

Vitor Veiga - Vocals
Sergio Sanchez - Drums
Cristiano Moura - Guitar
Rey Araujo - Bass
Luciano de Souza - Guitar
Marcio Brito - Keyboard

EAC Log


Exact Audio Copy V1.1 from 23. June 2015

EAC extraction logfile from 28. March 2016, 12:12

Endless / The Truth, The Chaos, The Insanity

Used drive : ATAPI iHAS122 W Adapter: 2 ID: 0

Read mode : Secure
Utilize accurate stream : Yes
Defeat audio cache : Yes
Make use of C2 pointers : No

Read offset correction : 48
Overread into Lead-In and Lead-Out : No
Fill up missing offset samples with silence : Yes
Delete leading and trailing silent blocks : No
Null samples used in CRC calculations : Yes
Used interface : Installed external ASPI interface

Used output format : User Defined Encoder
Selected bitrate : 1024 kBit/s
Quality : High
Add ID3 tag : No
Command line compressor : C:\Program Files\FLAC\flac.exe
Additional command line options : -V -8 -T "Date=%year%" -T "Genre=%genre%" -T"COMMENT=Ripped by Ilijan" -8 -V %source%

TOC of the extracted CD

Track | Start | Length | Start sector | End sector
-----------------------------
1 | 0:00.00 | 1:02.25 | 0 | 4674
2 | 1:02.25 | 5:02.53 | 4675 | 27377
3 | 6:05.03 | 5:47.47 | 27378 | 53449
4 | 11:52.50 | 6:47.57 | 53450 | 84031
5 | 18:40.32 | 4:48.00 | 84032 | 105631
6 | 23:28.32 | 6:37.09 | 105632 | 135415
7 | 30:05.41 | 5:54.00 | 135416 | 161965
8 | 35:59.41 | 5:38.33 | 161966 | 187348
9 | 41:37.74 | 4:39.33 | 187349 | 208306
10 | 46:17.32 | 4:39.53 | 208307 | 229284
11 | 50:57.10 | 7:17.19 | 229285 | 262078
12 | 58:14.29 | 5:46.21 | 262079 | 288049
13 | 64:00.50 | 2:58.67 | 288050 | 301466

Range status and errors

Selected range

Filename D:\ilко\Endless - The Truth, The Chaos, The Insanity.wav

Peak level 98.4 %
Extraction speed 4.4 X
Range quality 100.0 %
Test CRC CD2EA390
Copy CRC CD2EA390
Copy OK

No errors occurred


AccurateRip summary

Track 1 not present in database
Track 2 not present in database
Track 3 not present in database
Track 4 not present in database
Track 5 not present in database
Track 6 not present in database
Track 7 not present in database
Track 8 not present in database
Track 9 not present in database
Track 10 not present in database
Track 11 not present in database
Track 12 not present in database
Track 13 not present in database

None of the tracks are present in the AccurateRip database

End of status report

-- CUETools DB Plugin V2.1.6

[CTDB TOCID: 7jpDqRu4l5rrA5UQdOHRkI1T32E-] found
Submit result: 7jpDqRu4l5rrA5UQdOHRkI1T32E- has been confirmed
Track | CTDB Status
1 | (1/1) Accurately ripped
2 | (1/1) Accurately ripped
3 | (1/1) Accurately ripped
4 | (1/1) Accurately ripped
5 | (1/1) Accurately ripped
6 | (1/1) Accurately ripped
7 | (1/1) Accurately ripped
8 | (1/1) Accurately ripped
9 | (1/1) Accurately ripped
10 | (1/1) Accurately ripped
11 | (1/1) Accurately ripped
12 | (1/1) Accurately ripped
13 | (1/1) Accurately ripped

==== Log checksum 54CF5DC84CF894CC3452B0DA2CFA3D45F6C40ECB0ED72C902B1D07473B5C0A78 ====

DR Log


foobar2000 1.2.6 / Dynamic Range Meter 1.1.1
log date: 2016-03-30 00:12:29

----------------------------------------
Analyzed: Endless / The Truth, The Chaos, The Insanity
----------------------------------------

DR Peak RMS Duration Track
----------------------------------------
DR10 -4.64 dB -16.97 dB 1:02 01-A New Sunrise
DR5 -0.14 dB -6.83 dB 5:03 02-The Code Of Light
DR6 -0.14 dB -7.18 dB 5:48 03-Will Of Destiny
DR6 -0.14 dB -7.92 dB 6:48 04-The Truth, The Chaos, The Insanity
DR6 -0.14 dB -7.35 dB 4:48 05-Black Veil Of Madness
DR7 -0.14 dB -8.20 dB 6:37 06-Veins Of Blood
DR5 -0.14 dB -6.44 dB 5:54 07-Save Me From Myself
DR6 -0.14 dB -9.10 dB 5:38 08-Lady Of The Lake
DR7 -0.14 dB -8.01 dB 4:39 09-Under The Sun
DR5 -0.14 dB -6.34 dB 4:40 10-Puppets On A Stage
DR7 -0.14 dB -8.83 dB 7:17 11-A World Without Fantasy
DR7 -0.14 dB -9.50 dB 5:46 12-Celestial Dreams
DR10 -2.95 dB -17.09 dB 2:59 13-The Dawn Of The Red Sun (Bonus Track)
----------------------------------------

Number of tracks: 13
Official DR value: DR7

Samplerate: 44100 Hz
Channels: 2
Bits per sample: 16
Bitrate: 1030 kbps
Codec: FLAC
================================================================================

CUETools Log


[CUETools log; Date: 30.03.2016 0:12:29; Version: 2.1.5]
[CTDB TOCID: 7jpDqRu4l5rrA5UQdOHRkI1T32E-] found.
Track | CTDB Status
1 | (3/3) Accurately ripped
2 | (3/3) Accurately ripped
3 | (3/3) Accurately ripped
4 | (3/3) Accurately ripped
5 | (3/3) Accurately ripped
6 | (3/3) Accurately ripped
7 | (3/3) Accurately ripped
8 | (3/3) Accurately ripped
9 | (3/3) Accurately ripped
10 | (3/3) Accurately ripped
11 | (3/3) Accurately ripped
12 | (3/3) Accurately ripped
13 | (3/3) Accurately ripped
[AccurateRip ID: 001f443e-01408047-b70fb30d] disk not present in database.

Track Peak [ CRC32 ] [W/O NULL] [ LOG ]
- 98,4 [CD2EA390] BBD0C72 CRC32
01 58,5 [7FB433EA] [0B6D3755]
02 98,4 [40F1CAC1] [4975E1F4]
03 98,4 [75D31595] [54FE8519]
04 98,4 [3857C4F2] [14779B22]
05 98,4 [F953773E] [EDEB382C]
06 98,4 [3DA1F8DA] [AAAB9EE1]
07 98,4 [04A9B58C] [4E1C1D93]
08 98,4 [2BC0B2CB] 7EBCF2E
09 98,4 [19724A34] [8A7AB571]
10 98,4 [6E67B9CB] [7E9BAF57]
11 98,4 [726C931C] 1EE007C
12 98,4 [26490066] [3A120344]
13 71,1 [DB68227E] [43AED029]
Download link:

Buy Premium To Support Me & Get Resumable Support & Max Speed:



Links are Interchangeable - No Password - Single Extraction
Direct Download

Tags: Endless, Insanity, Japanese

Comments
Name:*
E-Mail:*
Add Comments:
Enter Code: *