Download Now

Big Audio Dynamite II - The Globe (1991) {Columbia CK 46147}

Big Audio Dynamite II - The Globe (1991) {Columbia CK 46147}
EAC Rip | FLAC with CUE and log | scans | 311 mb
MP3 CBR 320kbps | RAR | 127 mb
Genre: alternative rock

The Globe is the debut album by Big Audio Dynamite II. In truth, they are the second component of who were originally called Big Audio Dynamite, with The Clash's Mick Jones as the vocalist and Don Letts as the sonic contributor. After everyone leaving but Jones, he formed the second part of the group's existence, which lead to this album. This featured the hits "Rush" and the title track.
The Globe marked the beginning of the second chapter in Mick Jones' Big Audio Dynamite venture and their biggest commercial success in the U.S. With Jones the only member remaining onboard, The Globe is the sound of a reinvigorated BAD, with the engaging "Rush" becoming a surprise Top 40 hit. There are plenty more worthy tracks, including the buoyant "Can't Wait/Live," the title song (which also charted), and the poignant "Innocent Child," which makes good use of a sample from Phil Collins' "In the Air Tonight." The songwriting is some of Jones' strongest in some time, and The Globe was possibly the strongest effort of Big Audio Dynamite (in any incarnation) and certainly their best work since their debut.


Big Audio Dynamite II - The Globe (1991) {Columbia CK 46147}

01. Rush
02. Can't Wait/Live
03. I Don't Know
04. The Globe
05. Innocent Child
06. Green Grass
07. Kool-Aid
08. In My Dreams
09. When The Time Comes
10. The Tea Party

--
Mick Jones-vox, gtr
Gary Stonadge-bass, vox
Chris Kavanash-drums, vox
Nick Hawkins-gtr, vox

All tracks except tracks 1, 5 & 9 produced by Mick Jones & André Shapps
Tracks 1, 5 & 9 produced by Mick Jones with Olimax and DJ Shapps
Recorded at Sputnik Studio & The Center For Aural Amusement
"Can't Wait/Live" recorded at Alexandra Palace, London, August 10, 1990 by
Work was also carried out at Orinoco, Sam Therapy, Wand + F2, All London Zone
Engineered by André Shapps
Assisted by Dave Mercer at Sputnik, Serge Glanzberg at FZ, Gayle at Orinoco, Nick at Wand

Mastered at The Hit Factory, London, by Beryl Ritchie


Big Audio Dynamite II - The Globe (1991) {Columbia CK 46147}


EAC Log


EAC extraction logfile from 8. October 2007, 12:56 for CD
Big Audio Dynamite II / The Globe

Used drive : LITE-ON DVDRW SOHW-1633S Adapter: 0 ID: 0
Read mode : Secure with NO C2, accurate stream, disable cache
Read offset correction : 12
Overread into Lead-In and Lead-Out : No

Used output format : Internal WAV Routines
44.100 Hz; 16 Bit; Stereo

Other options :
Fill up missing offset samples with silence : Yes
Delete leading and trailing silent blocks : No
Installed external ASPI interface

Track 1
Filename D:\FLAC\Big Audio Dynamite II - The Globe (1991) [FLAC] {Columbia CK 46147}\01 - Rush.wav

Pre-gap length 0:00:02.00

Peak level 97.7 %
Track quality 99.9 %
Test CRC 767C762D
Copy CRC 767C762D
Copy OK

Track 2
Filename D:\FLAC\Big Audio Dynamite II - The Globe (1991) [FLAC] {Columbia CK 46147}\02 - Can't Wait, Live.wav

Peak level 86.0 %
Track quality 99.9 %
Test CRC 6405A65B
Copy CRC 6405A65B
Copy OK

Track 3
Filename D:\FLAC\Big Audio Dynamite II - The Globe (1991) [FLAC] {Columbia CK 46147}\03 - I Don't Know.wav

Peak level 85.7 %
Track quality 100.0 %
Test CRC 6245E477
Copy CRC 6245E477
Copy OK

Track 4
Filename D:\FLAC\Big Audio Dynamite II - The Globe (1991) [FLAC] {Columbia CK 46147}\04 - The Globe.wav

Peak level 86.5 %
Track quality 100.0 %
Test CRC 70F5B96D
Copy CRC 70F5B96D
Copy OK

Track 5
Filename D:\FLAC\Big Audio Dynamite II - The Globe (1991) [FLAC] {Columbia CK 46147}\05 - Innocent Child.wav

Peak level 94.0 %
Track quality 100.0 %
Test CRC 755EAE29
Copy CRC 755EAE29
Copy OK

Track 6
Filename D:\FLAC\Big Audio Dynamite II - The Globe (1991) [FLAC] {Columbia CK 46147}\06 - Green Grass.wav

Peak level 93.3 %
Track quality 99.9 %
Test CRC DC251881
Copy CRC DC251881
Copy OK

Track 7
Filename D:\FLAC\Big Audio Dynamite II - The Globe (1991) [FLAC] {Columbia CK 46147}\07 - Kool-Aid.wav

Peak level 97.6 %
Track quality 100.0 %
Test CRC 460EA4A2
Copy CRC 460EA4A2
Copy OK

Track 8
Filename D:\FLAC\Big Audio Dynamite II - The Globe (1991) [FLAC] {Columbia CK 46147}\08 - In My Dreams.wav

Peak level 97.7 %
Track quality 100.0 %
Test CRC 1199D2FA
Copy CRC 1199D2FA
Copy OK

Track 9
Filename D:\FLAC\Big Audio Dynamite II - The Globe (1991) [FLAC] {Columbia CK 46147}\09 - When The Time Comes.wav

Peak level 97.4 %
Track quality 100.0 %
Test CRC 6F8A1FD7
Copy CRC 6F8A1FD7
Copy OK

Track 10
Filename D:\FLAC\Big Audio Dynamite II - The Globe (1991) [FLAC] {Columbia CK 46147}\10 - The Tea Party.wav

Peak level 93.6 %
Track quality 100.0 %
Test CRC B911CE77
Copy CRC B911CE77
Copy OK

No errors occured

End of status report
Download link:

Buy Premium To Support Me & Get Resumable Support & Max Speed:



Links are Interchangeable - No Password - Single Extraction
Direct Download

Tags: Dynamite, Columbia

Comments
Name:*
E-Mail:*
Add Comments:
Enter Code: *