Download Now

Bill Cosby - My Appreciation (1991)

Bill Cosby - My Appreciation (1991)
EAC Rip | FLAC with CUE and log | scans | 281 mb
MP3 CBR 320kbps | RAR | 132 mb
Genre: jazz

My Appreciation is the 1991 album credited to comedian Bill Cosby. Unlike his better known work, this one is not comedic nor does it have any of his dialogue, but is a serious jazz project going back to his love of jazz. Released by Verve Digital, Cosby's actual contributions to the songs are minimal, allowing people like Jimmy Health, Bobby Watson, Ben Riley, and Mavis Staples to dominate. Essentially, it is a Bill Cosby album in name only.
Cosby's second jazz album with a group of top-notch handpicked musicians finds him fading into the background some, content only to contribute two "compositions" and devote the rest of the sessions to various soul, jazz and gospel tunes. Indeed, the comedian's only audible presence are the comically dissonant bursts of synths and percussion on his "3rd Avenue Jog." The persuasive front line includes a particularly biting Rebecca Coupe Franks on trumpet, Jimmy Heath a welcome guest on tenor and soprano (he sounds quite hot on "Have a Little Talk With Jesus"), Bobby Watson on alto, and Ralph Moore on tenor and soprano. The rhythm section is a capable if sedate team of Mulgrew Miller (piano), Peter Washington (bass) and Ben Riley (drums), and Mavis Staples and Roslyn Burroughs offer powerful a cappella vocal intros on one number apiece. The range of musical styles on the CD is less adventurous than its predecessor - perhaps the tempering hand of Cosby's co-arranger Watson had something to do with that - and ultimately, it isn't quite as much fun.


Bill Cosby - My Appreciation (1991)

01. Camille
02. Trinkle, Tinkle
03. Wholy Holy I
04. Come Sunday
05. Have A Little Talk With Jesus (Vocal)
06. Have A Little Talk With Jesus (Instrumental)
07. 3rd Avenue Jog
08. All Blues (Interlude)
09. Wholy Holy II
10. If I Had My Way (Vocal)
11. If I Had My Way (Instrumental)
--
Jimmy Heath-tenor and soprano saxophones
Ralph Moore-tenor saxophone
Rebecca Coupe Franks-trumpet
Bobby Watson-alto saxophone
Mulgrew Miller-piano
Peter Washington-bass
Ben Riley-drums
Mavis Staples-vocal on "Have A Little Talk With Jesus (Vocal)"
Roslyn Burrough-vocal on "If I Had My Way (Vocal)"

Bill Cosby-synthesizers, percussion in "3rd Avenue Jog"

Conceived and produced by Bill Cosby
Arranged by Bill Cosby and Bobby Watson
Executive producers: Richard Seidel, Ellis Cathey
Production assistant: Kim Tinsley
Recorded May 28th and 29th, 1990 at Studio 900, New York, New York
Engineered by Tony Battaglia
Assitant engineers: Julio Peña, Joe Downey
Mixed by Tony Battaglia
Mastered by James Nichols at BMG Studiosm New York, New York


Bill Cosby - My Appreciation (1991)


EAC Log


EAC extraction logfile from 3. January 2007, 12:44 for CD
Bill Cosby / My Appreciation

Used drive : LITE-ON DVDRW SOHW-1633S Adapter: 0 ID: 0
Read mode : Secure with NO C2, accurate stream, disable cache
Read offset correction : 12
Overread into Lead-In and Lead-Out : No

Used output format : Internal WAV Routines
44.100 Hz; 16 Bit; Stereo

Other options :
Fill up missing offset samples with silence : Yes
Delete leading and trailing silent blocks : No
Installed external ASPI interface

Track 1
Filename D:\FLAC\Bill Cosby - My Appreciation (1991) [FLAC]\01 - Camille.wav

Pre-gap length 0:00:02.42

Peak level 71.8 %
Track quality 100.0 %
Test CRC 28705D57
Copy CRC 28705D57
Copy OK

Track 2
Filename D:\FLAC\Bill Cosby - My Appreciation (1991) [FLAC]\02 - Trinkle, Tinkle.wav

Pre-gap length 0:00:04.00

Peak level 66.2 %
Track quality 100.0 %
Test CRC D2A27427
Copy CRC D2A27427
Copy OK

Track 3
Filename D:\FLAC\Bill Cosby - My Appreciation (1991) [FLAC]\03 - Wholy Holy I.wav

Pre-gap length 0:00:03.20

Peak level 70.5 %
Track quality 100.0 %
Test CRC 3BA3EC36
Copy CRC 3BA3EC36
Copy OK

Track 4
Filename D:\FLAC\Bill Cosby - My Appreciation (1991) [FLAC]\04 - Come Sunday.wav

Pre-gap length 0:00:03.06

Peak level 66.3 %
Track quality 100.0 %
Test CRC E1BB2592
Copy CRC E1BB2592
Copy OK

Track 5
Filename D:\FLAC\Bill Cosby - My Appreciation (1991) [FLAC]\05 - Have A Little Talk With Jesus (Vocal).wav

Pre-gap length 0:00:02.64

Peak level 40.9 %
Track quality 100.0 %
Test CRC 9903B064
Copy CRC 9903B064
Copy OK

Track 6
Filename D:\FLAC\Bill Cosby - My Appreciation (1991) [FLAC]\06 - Have A Little Talk With Jesus (Instrumental).wav

Pre-gap length 0:00:00.49

Peak level 71.7 %
Track quality 100.0 %
Test CRC 393EBBDC
Copy CRC 393EBBDC
Copy OK

Track 7
Filename D:\FLAC\Bill Cosby - My Appreciation (1991) [FLAC]\07 - 3rd Avenue Jog.wav

Pre-gap length 0:00:02.84

Peak level 69.1 %
Track quality 100.0 %
Test CRC AEFE1DE5
Copy CRC AEFE1DE5
Copy OK

Track 8
Filename D:\FLAC\Bill Cosby - My Appreciation (1991) [FLAC]\08 - All Blues (Interlude).wav

Pre-gap length 0:00:00.46

Peak level 58.7 %
Track quality 100.0 %
Test CRC BCE03F38
Copy CRC BCE03F38
Copy OK

Track 9
Filename D:\FLAC\Bill Cosby - My Appreciation (1991) [FLAC]\09 - Wholy Holy II.wav

Pre-gap length 0:00:00.82

Peak level 74.8 %
Track quality 100.0 %
Test CRC A89530C8
Copy CRC A89530C8
Copy OK

Track 10
Filename D:\FLAC\Bill Cosby - My Appreciation (1991) [FLAC]\10 - If I Had My Way (Vocal).wav

Pre-gap length 0:00:03.26

Peak level 31.1 %
Track quality 100.0 %
Test CRC 8E9B07E7
Copy CRC 8E9B07E7
Copy OK

Track 11
Filename D:\FLAC\Bill Cosby - My Appreciation (1991) [FLAC]\11 - If I Had My Way (Instrumental).wav

Pre-gap length 0:00:00.09

Peak level 70.7 %
Track quality 100.0 %
Test CRC A09F4FDC
Copy CRC A09F4FDC
Copy OK

No errors occured

End of status report
Download link:

Buy Premium To Support Me & Get Resumable Support & Max Speed:



Links are Interchangeable - No Password - Single Extraction
Direct Download

Tags: Appreciation

Comments
Name:*
E-Mail:*
Add Comments:
Enter Code: *