Download Now

Benny Golson - Stockholm Sojourn (1965) {1997 OJC}

Benny Golson - Stockholm Sojourn (1965) {1997 OJC}
EAC Rip | FLAC with CUE and log | scans | 189 mb
MP3 CBR 320kbps | RAR | 98 mb
Genre: jazz

Stockholm Sojourn is the 1965 album by Benny Golden & The International Jazz Orchestra. Originally released on Prestige, this was walased as part of the Original Jazz Classics (OJC) series by Fantasy Jazz in 1997.
Although the International Jazz Orchestra (which was arranged and conducted by Benny Golson) recorded their parts for this album on July 14, 1964, some of the soloists were dubbed in later that year. Golson, who does not play at all on this set, seemed inspired by the large instrumentation - a full orchestra with trumpets, trombones, French horns, several English horns doubling on oboes, five reeds, up to six additional flutes and a pianoless rhythm section - and his charts (six of his originals and three standards) are both inventive and full of subtle surprises. Among the many highlights are Golson's reworkings of "Are You Real," "Waltz for Debby" and "I Remember Clifford." This underrated set is recommended.


Benny Golson - Stockholm Sojourn (1965) {1997 OJC}

1. Stockholm Sojourn
2. Tryst
3. Are You Real
4. Goodbye
5. Waltz For Debby
6. My Foolish Heart
7. A Swedish Villa
8. I Remember Clifford
9. The Call (Bonus Track)
--
THE INTERNATIONAL JAZZ ORCHESTRA:
Benny Bailey, Bengt-Arne Wallin, Bo Broberg, Bertil Lövgren-trumpets
Georg Vernon, Jörgen Johansson, Ake Persson, Eje Thelin, Grachan Moncur III-trombones
Bengt Olsson, Karl Nyström, Elis Karvall, Willem Fock-French horns
Runo Eriksson-euphonium
Alf Nilsson, Ingvar Holst, Lars Skoglund, Eric Björkhagen-English horns, oboes
Bengt Christiansson, Niels Wharby, Börje Morelius, Yngve Sandstöm, Gösta Ströberg, Ulf Bergström-flutes
Rune Falk-clarinet, baritone saxophone
Torsten Wennberg, Claes Rosendahl, Arne Domnerus-clarinets, saxophones
Bjarne Nerem-tenor saxophone
Roman Dylag-bass
Eril Johansen-drums

Cecil Payne-baritone saxophone

Arranged and conducted by Benny Golson

Produced by Lew Futterman
Recorded in Stockholm (July and August, 1964) and New York City (fall 1964)
Remastering, 1997 - Phil De Lancie (Fantasy Studios, Berkeley)


Benny Golson - Stockholm Sojourn (1965) {1997 OJC}


EAC Log


EAC extraction logfile from 14. May 2007, 18:55 for CD
Benny Golson / Stockholm Sojourn

Used drive : LITE-ON DVDRW SOHW-1633S Adapter: 0 ID: 0
Read mode : Secure with NO C2, accurate stream, disable cache
Read offset correction : 12
Overread into Lead-In and Lead-Out : No

Used output format : Internal WAV Routines
44.100 Hz; 16 Bit; Stereo

Other options :
Fill up missing offset samples with silence : Yes
Delete leading and trailing silent blocks : No
Installed external ASPI interface

Track 1
Filename D:\FLAC\Benny Golson - Stockholm Sojourn (1965) [FLAC] {OJC}\01 - Stockholm Sojourn.wav

Pre-gap length 0:00:02.00

Peak level 100.0 %
Track quality 100.0 %
Test CRC 005D9936
Copy CRC 005D9936
Copy OK

Track 2
Filename D:\FLAC\Benny Golson - Stockholm Sojourn (1965) [FLAC] {OJC}\02 - Tryst.wav

Pre-gap length 0:00:01.64

Peak level 100.0 %
Track quality 100.0 %
Test CRC 1773C9FB
Copy CRC 1773C9FB
Copy OK

Track 3
Filename D:\FLAC\Benny Golson - Stockholm Sojourn (1965) [FLAC] {OJC}\03 - Are You Real.wav

Pre-gap length 0:00:01.60

Peak level 100.0 %
Track quality 100.0 %
Test CRC A1E71C47
Copy CRC A1E71C47
Copy OK

Track 4
Filename D:\FLAC\Benny Golson - Stockholm Sojourn (1965) [FLAC] {OJC}\04 - Goodbye.wav

Pre-gap length 0:00:01.26

Peak level 99.8 %
Track quality 100.0 %
Test CRC 2560BA13
Copy CRC 2560BA13
Copy OK

Track 5
Filename D:\FLAC\Benny Golson - Stockholm Sojourn (1965) [FLAC] {OJC}\05 - Waltz For Debby.wav

Pre-gap length 0:00:01.60

Peak level 99.9 %
Track quality 100.0 %
Test CRC 77B9A9D9
Copy CRC 77B9A9D9
Copy OK

Track 6
Filename D:\FLAC\Benny Golson - Stockholm Sojourn (1965) [FLAC] {OJC}\06 - My Foolish Heart.wav

Pre-gap length 0:00:01.42

Peak level 98.7 %
Track quality 100.0 %
Test CRC FBBB52FA
Copy CRC FBBB52FA
Copy OK

Track 7
Filename D:\FLAC\Benny Golson - Stockholm Sojourn (1965) [FLAC] {OJC}\07 - A Swedish Villa.wav

Pre-gap length 0:00:01.17

Peak level 100.0 %
Track quality 99.9 %
Test CRC D6F8B8E0
Copy CRC D6F8B8E0
Copy OK

Track 8
Filename D:\FLAC\Benny Golson - Stockholm Sojourn (1965) [FLAC] {OJC}\08 - I Remember Clifford.wav

Pre-gap length 0:00:01.46

Peak level 100.0 %
Track quality 100.0 %
Test CRC C138D240
Copy CRC C138D240
Copy OK

Track 9
Filename D:\FLAC\Benny Golson - Stockholm Sojourn (1965) [FLAC] {OJC}\09 - The Call.wav

Pre-gap length 0:00:01.90

Peak level 100.0 %
Track quality 99.9 %
Test CRC 70D3B2C2
Copy CRC 70D3B2C2
Copy OK

No errors occured

End of status report
Download link:

Buy Premium To Support Me & Get Resumable Support & Max Speed:



Links are Interchangeable - No Password - Single Extraction
Direct Download

Tags: Golson, Stockholm, Sojourn

Comments
Name:*
E-Mail:*
Add Comments:
Enter Code: *