Download Now

The World Of Jeeves And Wooster: Songs and Music from the Granada Television Series (1992)

The World Of Jeeves And Wooster: Songs and Music from the Granada Television Series (1992)
EAC | FLAC (Tracks) + cue.+log ~ 270 Mb | Mp3, CBR320 kbps ~ 138 Mb | Scans included
Soundtrack, Score, Ragtime, Big Band | Label: EMI | # CDP 7 990102 2 | 00:42:45

The original stories by P.G. Wodehouse are delightfully amusing and worthy of out loud chuckling at times. The films series Jeeves and Wooster are as close as one could come to the dry wit of uber intelligent Jeeves, as he contends with his witless (and certainly not dry) employer, Bertie Wooster. Their shenanigans usually revolve around various comedies of errors set in that mystical feudal society of 1930s Britain. This collection of music and a bit of dialogue from the series is just as delightful, embodying the bouncy, whimsical style of light music from the 1920s and 30s. Recommended.

Tracklist:

01. Jeeves and Wooster (01:14)
02. Jeeves and Wooster say What Ho! (dialogue) (01:03)
03. The Blue Room (The Delightful Song Foxtrot) (03:08)
04. Meanwhile in Berkley Square (02:07)
05. Barmy's Choice (dialogue) (01:39)
06. Nagaski (02:56)
07. The Amateur Dictator (Suite For Spode) (04:32)
08. Because my Baby Don't Mean Maybe Now (The Popular One Step) (03:28)
09. Midnight in Mayfair (02:48)
10. Minnie the Moocher Is Alive And Well and Living in Berkley Square (dialogue) (02:30)
11. Minnie the Moocher (The Comedy Concoction!) (03:23)
12. A Weekend in the Country (03:52)
13. Changes (A vocal harmony jaunt) (02:54)
14. Fire! (01:43)
15. If I Had a Picture of You (02:45)
16. Jeeves and Wooster say Tinkety Tonk (dialogue) (00:29)
17. The Daily Grind (02:07)


EAC log


Exact Audio Copy V1.0 beta 3 from 29. August 2011

EAC extraction logfile from 4. July 2012, 14:08

Anne Dudley / The World of Jeeves and Wooster

Used drive : PLEXTOR DVDR PX-L890SA Adapter: 1 ID: 1

Read mode : Secure
Utilize accurate stream : Yes
Defeat audio cache : Yes
Make use of C2 pointers : No

Read offset correction : 6
Overread into Lead-In and Lead-Out : No
Fill up missing offset samples with silence : Yes
Delete leading and trailing silent blocks : No
Null samples used in CRC calculations : Yes
Used interface : Installed external ASPI interface
Gap handling : Appended to previous track

Used output format : User Defined Encoder
Selected bitrate : 1024 kBit/s
Quality : High
Add ID3 tag : No
Command line compressor : C:\Program Files\Exact Audio Copy\Flac\flac.exe
Additional command line options : -V -8 -T "Genre=%genre%" -T "Artist=%artist%" -T "Title=%title%" -T "Album=%albumtitle%" -T "Date=%year%" -T "Tracknumber=%tracknr%" -T "Comment=%comment%" %source%

TOC of the extracted CD

Track | Start | Length | Start sector | End sector
-----------------------------
1 | 0:00.33 | 1:14.40 | 33 | 5622
2 | 1:14.73 | 1:03.22 | 5623 | 10369
3 | 2:18.20 | 3:08.18 | 10370 | 24487
4 | 5:26.38 | 2:07.20 | 24488 | 34032
5 | 7:33.58 | 1:39.25 | 34033 | 41482
6 | 9:13.08 | 2:56.30 | 41483 | 54712
7 | 12:09.38 | 4:32.15 | 54713 | 75127
8 | 16:41.53 | 3:28.55 | 75128 | 90782
9 | 20:10.33 | 2:48.60 | 90783 | 103442
10 | 22:59.18 | 2:30.30 | 103443 | 114722
11 | 25:29.48 | 3:23.62 | 114723 | 130009
12 | 28:53.35 | 3:52.13 | 130010 | 147422
13 | 32:45.48 | 2:54.12 | 147423 | 160484
14 | 35:39.60 | 1:43.50 | 160485 | 168259
15 | 37:23.35 | 2:45.33 | 168260 | 180667
16 | 40:08.68 | 0:29.67 | 180668 | 182909
17 | 40:38.60 | 2:07.18 | 182910 | 192452

Track 1

Filename F:\torrent\The World of Jeeves and Wooster_Anne Dudley\score\01 Jeeves and Wooster.wav

Pre-gap length 0:00:02.33

Peak level 59.8 %
Extraction speed 3.6 X
Track quality 100.0 %
Test CRC 54ED2C79
Copy CRC 54ED2C79
Accurately ripped (confidence 5) [AC3018E2] (AR v1)
Copy OK

Track 2

Filename F:\torrent\The World of Jeeves and Wooster_Anne Dudley\score\02 Jeeves and Wooster say What Ho! (dialogue).wav

Pre-gap length 0:00:00.03

Peak level 97.2 %
Extraction speed 3.5 X
Track quality 100.0 %
Test CRC 0807CADA
Copy CRC 0807CADA
Accurately ripped (confidence 5) [FBB547C5] (AR v1)
Copy OK

Track 3

Filename F:\torrent\The World of Jeeves and Wooster_Anne Dudley\score\03 The Blue Room (The Delightful Song Foxtrot).wav

Pre-gap length 0:00:00.02

Peak level 97.1 %
Extraction speed 4.3 X
Track quality 99.9 %
Test CRC 200ED26F
Copy CRC 200ED26F
Accurately ripped (confidence 5) [A2D04E37] (AR v1)
Copy OK

Track 4

Filename F:\torrent\The World of Jeeves and Wooster_Anne Dudley\score\04 Meanwhile in Berkley Square.wav

Pre-gap length 0:00:00.55

Peak level 87.7 %
Extraction speed 4.9 X
Track quality 100.0 %
Test CRC 2716335F
Copy CRC 2716335F
Accurately ripped (confidence 5) [E4D4D03D] (AR v1)
Copy OK

Track 5

Filename F:\torrent\The World of Jeeves and Wooster_Anne Dudley\score\05 Barmy's Choice (dialogue).wav

Pre-gap length 0:00:00.15

Peak level 59.4 %
Extraction speed 4.9 X
Track quality 100.0 %
Test CRC 6A5A77B4
Copy CRC 6A5A77B4
Accurately ripped (confidence 5) [08FBBC8D] (AR v1)
Copy OK

Track 6

Filename F:\torrent\The World of Jeeves and Wooster_Anne Dudley\score\06 Nagaski.wav

Pre-gap length 0:00:00.03

Peak level 97.2 %
Extraction speed 5.7 X
Track quality 100.0 %
Test CRC C7FDD663
Copy CRC C7FDD663
Accurately ripped (confidence 5) [259C5825] (AR v1)
Copy OK

Track 7

Filename F:\torrent\The World of Jeeves and Wooster_Anne Dudley\score\07 The Amateur Dictator (Suite For Spode).wav

Pre-gap length 0:00:01.18

Peak level 97.2 %
Extraction speed 6.5 X
Track quality 100.0 %
Test CRC DB7ACB0F
Copy CRC DB7ACB0F
Accurately ripped (confidence 5) [4B3D40A1] (AR v1)
Copy OK

Track 8

Filename F:\torrent\The World of Jeeves and Wooster_Anne Dudley\score\08 Because my Baby Don't Mean Maybe Now (The Popular One Step).wav

Pre-gap length 0:00:00.20

Peak level 97.2 %
Extraction speed 4.4 X
Track quality 100.0 %
Test CRC 1F84E560
Copy CRC 1F84E560
Accurately ripped (confidence 5) [EBEC4D90] (AR v1)
Copy OK

Track 9

Filename F:\torrent\The World of Jeeves and Wooster_Anne Dudley\score\09 Midnight in Mayfair.wav

Pre-gap length 0:00:01.18

Peak level 61.8 %
Extraction speed 4.6 X
Track quality 100.0 %
Test CRC 4FDCCD13
Copy CRC 4FDCCD13
Accurately ripped (confidence 5) [6C0CD3E2] (AR v1)
Copy OK

Track 10

Filename F:\torrent\The World of Jeeves and Wooster_Anne Dudley\score\10 Minnie the Moocher Is Alive And Well and Living in Berkley Square (dialogue).wav

Pre-gap length 0:00:00.18

Peak level 74.0 %
Extraction speed 3.9 X
Track quality 99.9 %
Test CRC 00D03739
Copy CRC 00D03739
Accurately ripped (confidence 5) [4CC1BB2B] (AR v1)
Copy OK

Track 11

Filename F:\torrent\The World of Jeeves and Wooster_Anne Dudley\score\11 Minnie the Moocher (The Comedy Concoction!).wav

Pre-gap length 0:00:00.03

Peak level 82.0 %
Extraction speed 4.4 X
Track quality 99.9 %
Test CRC 3B92ED88
Copy CRC 3B92ED88
Accurately ripped (confidence 5) [9F6AD78D] (AR v1)
Copy OK

Track 12

Filename F:\torrent\The World of Jeeves and Wooster_Anne Dudley\score\12 A Weekend in the Country.wav

Pre-gap length 0:00:01.17

Peak level 60.4 %
Extraction speed 5.5 X
Track quality 100.0 %
Test CRC F94D0DED
Copy CRC F94D0DED
Accurately ripped (confidence 5) [CE63C36C] (AR v1)
Copy OK

Track 13

Filename F:\torrent\The World of Jeeves and Wooster_Anne Dudley\score\13 Changes (A vocal harmony jaunt).wav

Pre-gap length 0:00:01.03

Peak level 97.2 %
Extraction speed 5.4 X
Track quality 100.0 %
Test CRC 1BD222C8
Copy CRC 1BD222C8
Accurately ripped (confidence 5) [65326C83] (AR v1)
Copy OK

Track 14

Filename F:\torrent\The World of Jeeves and Wooster_Anne Dudley\score\14 Fire!.wav

Pre-gap length 0:00:00.20

Peak level 97.2 %
Extraction speed 4.8 X
Track quality 100.0 %
Test CRC E7A1657E
Copy CRC E7A1657E
Accurately ripped (confidence 5) B6DE25C (AR v1)
Copy OK

Track 15

Filename F:\torrent\The World of Jeeves and Wooster_Anne Dudley\score\15 If I Had a Picture of You.wav

Pre-gap length 0:00:00.17

Peak level 97.0 %
Extraction speed 5.5 X
Track quality 100.0 %
Test CRC 0DE0306D
Copy CRC 0DE0306D
Accurately ripped (confidence 5) [81B83A48] (AR v1)
Copy OK

Track 16

Filename F:\torrent\The World of Jeeves and Wooster_Anne Dudley\score\16 Jeeves and Wooster say Tinkety Tonk (dialogue).wav

Pre-gap length 0:00:00.03

Peak level 63.5 %
Extraction speed 1.9 X
Track quality 99.6 %
Test CRC 96ECDBC2
Copy CRC 96ECDBC2
Accurately ripped (confidence 5) [57FCA19C] (AR v1)
Copy OK

Track 17

Filename F:\torrent\The World of Jeeves and Wooster_Anne Dudley\score\17 The Daily Grind.wav

Pre-gap length 0:00:00.02

Peak level 96.9 %
Extraction speed 5.4 X
Track quality 100.0 %
Test CRC 79879F51
Copy CRC 79879F51
Accurately ripped (confidence 5) [38BD1E83] (AR v1)
Copy OK

All tracks accurately ripped

No errors occurred

End of status report

==== Log checksum 9F538B224320F23202C543484CBC4D0E480A0CD4A71664548B9048F27BDED31E ====

DR log


foobar2000 1.2 / Dynamic Range Meter 1.1.1
log date: 2016-03-27 13:06:25

----------------------------------------
Analyzed: Anne Dudley / The World of Jeeves and Wooster
----------------------------------------

DR Peak RMS Duration Track
----------------------------------------
DR10 -4.45 dB -17.31 dB 1:15 01-Jeeves and Wooster
DR18 -0.24 dB -22.93 dB 1:03 02-Jeeves and Wooster say What Ho! (dialogue)
DR15 -0.25 dB -17.48 dB 3:08 03-The Blue Room (The Delightful Song Foxtrot)
DR13 -1.14 dB -16.97 dB 2:07 04-Meanwhile in Berkley Square
DR13 -4.52 dB -21.59 dB 1:39 05-Barmy's Choice (dialogue)
DR15 -0.24 dB -17.21 dB 2:56 06-Nagaski
DR13 -0.24 dB -17.26 dB 4:32 07-The Amateur Dictator (Suite For Spode)
DR16 -0.24 dB -19.18 dB 3:29 08-Because my Baby Don't Mean Maybe Now (The Popular One Step)
DR10 -4.18 dB -18.45 dB 2:49 09-Midnight in Mayfair
DR14 -2.61 dB -21.51 dB 2:30 10-Minnie the Moocher Is Alive And Well and Living in Berkley Square (dialogue)
DR13 -1.71 dB -17.77 dB 3:24 11-Minnie the Moocher (The Comedy Concoction!)
DR12 -4.38 dB -19.92 dB 3:52 12-A Weekend in the Country
DR14 -0.24 dB -17.89 dB 2:54 13-Changes (A vocal harmony jaunt)
DR13 -0.24 dB -16.08 dB 1:44 14-Fire!
DR15 -0.26 dB -17.67 dB 2:45 15-If I Had a Picture of You
DR17 -3.93 dB -27.62 dB 0:30 16-Jeeves and Wooster say Tinkety Tonk (dialogue)
DR13 -0.27 dB -16.08 dB 2:07 17-The Daily Grind
----------------------------------------

Number of tracks: 17
Official DR value: DR14

Samplerate: 44100 Hz
Channels: 2
Bits per sample: 16
Bitrate: 798 kbps
Codec: FLAC
================================================================================ Pass: avaxhome
Download link:

Buy Premium To Support Me & Get Resumable Support & Max Speed:



Links are Interchangeable - No Password - Single Extraction
Direct Download

Tags: Jeeves, Wooster, Granada, Television, Series

Comments
Name:*
E-Mail:*
Add Comments:
Enter Code: *