Download Now


Gollbetty - Gollbetty Best (2010) [Limited CD & DVD Edition]
Gollbetty - Gollbetty Best (2010) [CD+DVD Edition]
FLAC+CUE+LOG or MP3 CBR 320 | Complete Scanwork | + Full DVD | 564 or 165 MB + 3,68 GB

Gollbetty (ゴルベティー) were a seven-piece Japanese ska band with strong pop and punk influences. They formed in 2004 in Nagoya. Released four albums, an EP, and numerous singles, the band broke up after the completion of their Final Tour in 2010, issuing the retrospective CD, "Gollbetty Best".
Tracklist - CD:

01. Voltage (Opening SE)
02. ウエヲ (Uewo)
03. 小恋指 ~コイユビ~ (Koi Yubi)
04. Can't Stop!
05. Easy Going
06. Snow Fall
07. Fighting Girls!!
08. I'm Still Lovin' You
09. Cool Music
10. Crystal
11. 99%
12. Betty's Buggy
13. Ms. Sunflower
14. Secret Word
15. If!
16. Scramble
17. Chakura onus Track
18. Way To You onus Track
19. Purple Of Lilac onus Track

EAC Logfile


Exact Audio Copy V1.1 from 23. June 2015

EAC extraction logfile from 25. March 2016, 21:07

Gollbetty / Gollbetty Best

Used drive : PIONEER DVD-RW DVR-219L Adapter: 1 ID: 1

Read mode : Secure
Utilize accurate stream : Yes
Defeat audio cache : Yes
Make use of C2 pointers : No

Read offset correction : 6
Overread into Lead-In and Lead-Out : No
Fill up missing offset samples with silence : Yes
Delete leading and trailing silent blocks : No
Null samples used in CRC calculations : Yes
Used interface : Native Win32 interface for Win NT & 2000

Used output format : Internal WAV Routines
Sample format : 44.100 Hz; 16 Bit; Stereo

TOC of the extracted CD

Track | Start | Length | Start sector | End sector
-----------------------------
1 | 0:00.00 | 1:46.14 | 0 | 7963
2 | 1:46.14 | 3:45.17 | 7964 | 24855
3 | 5:31.31 | 4:56.61 | 24856 | 47116
4 | 10:28.17 | 3:55.45 | 47117 | 64786
5 | 14:23.62 | 3:38.39 | 64787 | 81175
6 | 18:02.26 | 5:05.09 | 81176 | 104059
7 | 23:07.35 | 3:05.08 | 104060 | 117942
8 | 26:12.43 | 4:01.61 | 117943 | 136078
9 | 30:14.29 | 4:05.66 | 136079 | 154519
10 | 34:20.20 | 4:35.12 | 154520 | 175156
11 | 38:55.32 | 4:41.39 | 175157 | 196270
12 | 43:36.71 | 3:23.54 | 196271 | 211549
13 | 47:00.50 | 3:48.55 | 211550 | 228704
14 | 50:49.30 | 3:53.51 | 228705 | 246230
15 | 54:43.06 | 3:06.17 | 246231 | 260197
16 | 57:49.23 | 4:48.38 | 260198 | 281835
17 | 62:37.61 | 3:13.41 | 281836 | 296351
18 | 65:51.27 | 3:34.11 | 296352 | 312412
19 | 69:25.38 | 3:23.46 | 312413 | 327683

Range status and errors

Selected range

Filename F:\_Rehabilly\Gollbetty - Gollbetty Best (2010) [CD+DVD Edition]\Gollbetty - Gollbetty Best (R3RCD-089).wav

Peak level 100.0 %
Extraction speed 3.4 X
Range quality 99.9 %
Test CRC D342EA56
Copy CRC D342EA56
Copy OK

No errors occurred


AccurateRip summary

Track 1 not present in database
Track 2 not present in database
Track 3 not present in database
Track 4 not present in database
Track 5 not present in database
Track 6 not present in database
Track 7 not present in database
Track 8 not present in database
Track 9 not present in database
Track 10 not present in database
Track 11 not present in database
Track 12 not present in database
Track 13 not present in database
Track 14 not present in database
Track 15 not present in database
Track 16 not present in database
Track 17 not present in database
Track 18 not present in database
Track 19 not present in database

None of the tracks are present in the AccurateRip database

End of status report

==== Log checksum A2209458C44D0C4E16990C653A4EBE3D74681FA58874F068FC0CA651A58CBC53 ====



DVD Content:

01. ウエヲ
02. 小恋指 ~コイユビ~
03. Easy Going
04. Can't Stop!
05. Fighting Girls!!
06. G.M.W.
07. I'm Still Lovin' You
08. Cool Music
09. Crystal
10. 99%
11. Betty's Buggy
12. Secret Word
13. If!
14. Scramble

DVD info


Untouched original disc
NTSC, Aspect Ratio: 1,33:1
MPEG-2 720x480, 29,97 Fps
Auto VBR (Averagel bitrate ~ 7000 Kbps)
Audio: LPCM 2.0 Stereo (1536 Kbps)

Without Menu, just Music Videos in chronological order, one by one.

Total length: ~ 21 mins
Unpacked Size: 3,61 GB
5% Recovery info
RAR's Total: 3,68 GB




Mix & Mastering by Shinya Aono at LD&K Waseda Studio.
More detailed info read inside the book(let).

* G-Yun - vocals
* Missy - guitars
* Classy - bass
* Mush - drums
* Taka-P - tenor sax
* Shoda - trumpet
* Hiroaki - trombone

Release Date: August 3, 2010
Format: Limited Edition (Digibook > CD+DVD)
Number Of Discs: 2
Label: Run Run Run Records, Japan
Catalog No.: R3R-089 (CD/DV)
Download link:

Buy Premium To Support Me & Get Resumable Support & Max Speed:



Links are Interchangeable - No Password - Single Extraction
Direct Download

Tags: Gollbetty, Gollbetty, Limited

Comments
Name:*
E-Mail:*
Add Comments:
Enter Code: *