Download Now

Wojciech Kilar, Sumi Jo - The Ninth Gate: Original Fim Soundtrack (1999)

Wojciech Kilar, Sumi Jo - The Ninth Gate: Original Fim Soundtrack (1999)
EAC | FLAC (Tracks) + cue.+log ~ 306 Mb | Mp3, CBR320 kbps ~ 147 Mb | Scans included
Soundtrack, Score | Label: Silva Screen | # SSD 1103 | 00:54:06

The Ninth Gate, Roman Polanski's supernatural thriller about a book that can summon the devil, features an appropriately tense and eerie score by Wojciech Kilar, who also composed the award-winning music for Bram Stoker's Dracula. Sumi Jo's ethereal, operatic vocals grace "The Theme From The Ninth Gate," and the City of Prague Philharmonic and Chorus lend a brooding, Old World feel to pieces like "Corso" and "Bernie Is Dead." Piano and strings contribute to the ghostly, romantic aura of "Liana," while "Plane to Spain," "Chateau Saint Martin," and "The Motorbike" add to the score's continental atmosphere. Suspenseful in its own right, Kilar's music for The Ninth Gate reaffirms his skill as a film composer.

Tracklist:

01. Vocalise - Theme From The Ninth Gate (03:54)
02. Opening Titles (03:31)
03. Corso (03:24)
04. Bernie Is Dead (04:31)
05. Liana (03:02)
06. Plane To Spain (04:47)
07. The Motorbike (01:18)
08. Missing Book / Stalking Corso (04:41)
09. Blood On His Face (01:13)
10. Chateau Saint Martin (04:05)
11. Liana's Death (02:38)
12. 'BOO !' / The Chase (04:29)
13. Balkan's Death (03:52)
14. The Ninth Gate (01:13)
15. Corso And The Girl (03:20)
16. Vocalise - Theme From The Ninth Gate (reprise) (03:56)


EAC log


Exact Audio Copy V0.99 prebeta 3 from 28. July 2007

EAC extraction logfile from 6. December 2007, 7:02

Wojciech Kilar / The Ninth Gate

Used drive : SAMSUNG DVD-ROM SD-616Q Adapter: 0 ID: 0

Read mode : Secure
Utilize accurate stream : Yes
Defeat audio cache : Yes
Make use of C2 pointers : No

Read offset correction : 12
Overread into Lead-In and Lead-Out : No
Fill up missing offset samples with silence : Yes
Delete leading and trailing silent blocks : No
Null samples used in CRC calculations : Yes
Used interface : Installed external ASPI interface
Gap handling : Appended to previous track

Used output format : User Defined Encoder
Selected bitrate : 128 kBit/s
Quality : High
Add ID3 tag : No
Command line compressor : C:\Program\FLAC\flac.exe
Additional command line options : -8 -A tukey(0.25) -A gauss(0.1875) -b 4096 -V -T "artist=%a" -T "title=%t" -T "album=%g" -T "date=%y" -T "tracknumber=%n" -T "genre=%m" %s -sector-align

TOC of the extracted CD

Track | Start | Length | Start sector | End sector
-----------------------------
1 | 0:00.00 | 3:56.54 | 0 | 17753
2 | 3:56.54 | 3:31.58 | 17754 | 33636
3 | 7:28.37 | 3:24.51 | 33637 | 48987
4 | 10:53.13 | 4:31.34 | 48988 | 69346
5 | 15:24.47 | 3:03.30 | 69347 | 83101
6 | 18:28.02 | 4:48.10 | 83102 | 104711
7 | 23:16.12 | 1:18.66 | 104712 | 110627
8 | 24:35.03 | 4:41.16 | 110628 | 131718
9 | 29:16.19 | 1:13.06 | 131719 | 137199
10 | 30:29.25 | 4:05.25 | 137200 | 155599
11 | 34:34.50 | 2:38.74 | 155600 | 167523
12 | 37:13.49 | 4:29.06 | 167524 | 187704
13 | 41:42.55 | 3:52.43 | 187705 | 205147
14 | 45:35.23 | 1:13.51 | 205148 | 210673
15 | 46:48.74 | 3:20.32 | 210674 | 225705
16 | 50:09.31 | 3:56.21 | 225706 | 243426

Track 1

Filename C:\filer\mp3\new ripped\flac\Wojciech Kilar - The Ninth Gate\01-Vocalise - Theme From The Ninth Gate.wav

Pre-gap length 0:00:02.00

Peak level 79.6 %
Track quality 100.0 %
Test CRC 5FAC7341
Copy CRC 5FAC7341
Accurately ripped (confidence 4) [F89319A8]
Copy OK

Track 2

Filename C:\filer\mp3\new ripped\flac\Wojciech Kilar - The Ninth Gate\02-Opening Titles.wav

Pre-gap length 0:00:01.57

Peak level 91.8 %
Track quality 100.0 %
Test CRC 138C419E
Copy CRC 138C419E
Accurately ripped (confidence 4) [4EFC7216]
Copy OK

Track 3

Filename C:\filer\mp3\new ripped\flac\Wojciech Kilar - The Ninth Gate\03-Corso.wav

Peak level 98.0 %
Track quality 100.0 %
Test CRC A16777D7
Copy CRC A16777D7
Accurately ripped (confidence 4) [F0731592]
Copy OK

Track 4

Filename C:\filer\mp3\new ripped\flac\Wojciech Kilar - The Ninth Gate\04-Bernie Is Dead.wav

Peak level 83.7 %
Track quality 100.0 %
Test CRC 51423DCB
Copy CRC 51423DCB
Accurately ripped (confidence 4) [91483FB2]
Copy OK

Track 5

Filename C:\filer\mp3\new ripped\flac\Wojciech Kilar - The Ninth Gate\05-Liana.wav

Pre-gap length 0:00:00.29

Peak level 67.9 %
Track quality 100.0 %
Test CRC 2E108BCB
Copy CRC 2E108BCB
Accurately ripped (confidence 3) [A3C363DA]
Copy OK

Track 6

Filename C:\filer\mp3\new ripped\flac\Wojciech Kilar - The Ninth Gate\06-Plane To Spain.wav

Pre-gap length 0:00:00.32

Peak level 65.1 %
Track quality 100.0 %
Test CRC 385D9272
Copy CRC 385D9272
Accurately ripped (confidence 3) [C22565DD]
Copy OK

Track 7

Filename C:\filer\mp3\new ripped\flac\Wojciech Kilar - The Ninth Gate\07-The Motorbike.wav

Pre-gap length 0:00:00.32

Peak level 60.6 %
Track quality 100.0 %
Test CRC 0467D358
Copy CRC 0467D358
Accurately ripped (confidence 3) [35C3C445]
Copy OK

Track 8

Filename C:\filer\mp3\new ripped\flac\Wojciech Kilar - The Ninth Gate\08-Missing Book , Stalking Corso.wav

Peak level 84.9 %
Track quality 100.0 %
Test CRC 55BE8D17
Copy CRC 55BE8D17
Accurately ripped (confidence 3) [071F2122]
Copy OK

Track 9

Filename C:\filer\mp3\new ripped\flac\Wojciech Kilar - The Ninth Gate\09-Blood On His Face.wav

Pre-gap length 0:00:00.01

Peak level 47.3 %
Track quality 100.0 %
Test CRC E7D75DB0
Copy CRC E7D75DB0
Accurately ripped (confidence 3) [1821B93D]
Copy OK

Track 10

Filename C:\filer\mp3\new ripped\flac\Wojciech Kilar - The Ninth Gate\10-Chateau Saint Martin.wav

Peak level 95.2 %
Track quality 100.0 %
Test CRC 8EAAD140
Copy CRC 8EAAD140
Accurately ripped (confidence 3) [2CE5BB27]
Copy OK

Track 11

Filename C:\filer\mp3\new ripped\flac\Wojciech Kilar - The Ninth Gate\11-Liana's Death.wav

Peak level 86.8 %
Track quality 100.0 %
Test CRC 61E8EC36
Copy CRC 61E8EC36
Accurately ripped (confidence 3) [C06BF39C]
Copy OK

Track 12

Filename C:\filer\mp3\new ripped\flac\Wojciech Kilar - The Ninth Gate\12-'BOO !' , The Chase.wav

Peak level 100.0 %
Track quality 100.0 %
Test CRC 145C204B
Copy CRC 145C204B
Accurately ripped (confidence 3) [C4C2EC0B]
Copy OK

Track 13

Filename C:\filer\mp3\new ripped\flac\Wojciech Kilar - The Ninth Gate\13-Balkan's Death.wav

Peak level 83.0 %
Track quality 100.0 %
Test CRC C7408B8B
Copy CRC C7408B8B
Accurately ripped (confidence 3) [C6542DFF]
Copy OK

Track 14

Filename C:\filer\mp3\new ripped\flac\Wojciech Kilar - The Ninth Gate\14-The Ninth Gate.wav

Pre-gap length 0:00:00.36

Peak level 68.7 %
Track quality 100.0 %
Test CRC F8AFEDCE
Copy CRC F8AFEDCE
Accurately ripped (confidence 3) [3F8E4ECA]
Copy OK

Track 15

Filename C:\filer\mp3\new ripped\flac\Wojciech Kilar - The Ninth Gate\15-Corso And The Girl.wav

Pre-gap length 0:00:00.21

Peak level 92.7 %
Track quality 100.0 %
Test CRC D2365CCE
Copy CRC D2365CCE
Accurately ripped (confidence 3) [78405DB8]
Copy OK

Track 16

Filename C:\filer\mp3\new ripped\flac\Wojciech Kilar - The Ninth Gate\16-Vocalise - Theme From The Ninth Gate (reprise).wav

Pre-gap length 0:00:00.01

Peak level 79.6 %
Track quality 99.8 %
Test CRC 383A4854
Copy CRC 383A4854
Accurately ripped (confidence 2) [A292F100]
Copy OK

All tracks accurately ripped

No errors occurred

End of status report

DR log


foobar2000 1.2 / Dynamic Range Meter 1.1.1
log date: 2016-03-27 17:52:01

----------------------------------------
Analyzed: Wojciech Kilar / The Ninth Gate
----------------------------------------

DR Peak RMS Duration Track
----------------------------------------
DR12 -1.98 dB -17.52 dB 3:57 01-Vocalise - Theme From The Ninth Gate
DR12 -0.74 dB -15.21 dB 3:32 02-Opening Titles
DR13 -0.17 dB -17.03 dB 3:25 03-Corso
DR13 -1.54 dB -19.19 dB 4:31 04-Bernie Is Dead
DR11 -3.36 dB -18.16 dB 3:03 05-Liana
DR13 -3.72 dB -21.20 dB 4:48 06-Plane To Spain
DR11 -4.35 dB -18.23 dB 1:19 07-The Motorbike
DR12 -1.41 dB -17.38 dB 4:41 08-Missing Book / Stalking Corso
DR11 -6.49 dB -22.85 dB 1:13 09-Blood On His Face
DR15 -0.42 dB -19.42 dB 4:05 10-Chateau Saint Martin
DR11 -1.22 dB -16.75 dB 2:39 11-Liana's Death
DR14 0.00 dB -18.64 dB 4:29 12-'BOO !' / The Chase
DR11 -1.62 dB -16.32 dB 3:53 13-Balkan's Death
DR10 -3.26 dB -17.50 dB 1:14 14-The Ninth Gate
DR11 -0.65 dB -16.33 dB 3:20 15-Corso And The Girl
DR12 -1.98 dB -17.52 dB 3:56 16-Vocalise - Theme From The Ninth Gate (reprise)
----------------------------------------

Number of tracks: 16
Official DR value: DR12

Samplerate: 44100 Hz
Channels: 2
Bits per sample: 16
Bitrate: 719 kbps
Codec: FLAC
================================================================================ Pass: avaxhome
Download link:

Buy Premium To Support Me & Get Resumable Support & Max Speed:



Links are Interchangeable - No Password - Single Extraction
Direct Download

Tags: Wojciech, Original, Soundtrack

Comments
Name:*
E-Mail:*
Add Comments:
Enter Code: *