Download Now

JK (Joel Kipnis) - What's The Word (1998)

JK (Joel Kipnis) - What's The Word (1998)
EAC | FLAC | Tracks (Cue&Log) ~ 419 Mb (incl 5%) | Mp3 (CBR320) ~ 175 Mb (incl 5%) | Scans included
Genre: Guitar Jazz, Smooth Jazz, Jazz-Funk, R&B | Label: Verve Forecast | # 314 557 111-2 | Time: 01:00:44

Electric guitarist Joel Kipnis - or JK, as the smooth jazz world will know him - is an amazingly unselfish musician, not only including his keyboardist Dinky Bingham and featured vocalist Robyn Springer on the back cover of his Verve Forecast debut What's the Word, but deferring lead parts and solos to them as well as other bandmembers more often than not throughout the disc. Kipnis will establish a theme, then kick around in the background while Bingham sprouts a frenetic bluesy organ solo, Scott Kreitzer sparks some fancy improvisations on sax, and Jim Hynes eases in on trumpet, all in rapid succession. The tag eaming bears the most fruit on the funkiest cut "In the Pocket," where Bingham bubbles under JK's slick lines while Hynes waits for an open door to chime in a measure or two. While JK isn't always the one who stands out most on each cut, give him credit for aiming for solid ensemble vibes The few full-on instrumentals are a blast.

Tracklist:

01. Off The Hook (04:33)
02. What's The Word (05:11)
03. Gina (05:14)
04. Ain't It Good To Know (04:49)
05. In The Pocket (04:58)
06. Love Jones (04:28)
07. In My Bedroom (05:53)
08. She's Got Somethin' (05:02)
09. So Sorry (05:09)
10. Say Love Say When (04:59)
11. This Must Be Love (05:08)
12. Seduction (05:13)


EAC log


Exact Audio Copy V1.0 beta 2 from 29. April 2011

Отчёт EAC об извлечении, выполненном 21. марта 2016, 19:57

JK / What's The Word

Дисковод: PLEXTOR BDDVDRPX-B330SA Adapter: 0 ID: 1

Режим чтения : Достоверность
Использование точного потока : Да
Отключение кэша аудио : Да
Использование указателей C2 : Нет

Коррекция смещения при чтении : 702
Способность читать области Lead-in и Lead-out : Нет
Заполнение пропущенных сэмплов тишиной : Да
Удаление блоков с тишиной в начале и конце : Нет
При вычислениях CRC использовались нулевые сэмплы : Да
Интерфейс : Встроенный Win32-интерфейс для Win NT/2000
Обработка зазоров : Добавлено к предыдущему треку

Выходной формат : Пользовательский кодировщик
Выбранный битрейт : 128 kBit/s
Качество : Высокий
Добавление ID3-тега : Нет
Утилита сжатия : C:\Program Files\Exact Audio Copy\FLAC\FLAC.EXE
Дополнительные параметры : -6 -V -T "ARTIST=%artist%" -T "TITLE=%title%" -T "ALBUM=%albumtitle%" -T "DATE=%year%" -T "TRACKNUMBER=%tracknr%" -T "GENRE=%genre%" -T "COMMENT=%comment%" -T "BAND=%albuminterpret%" -T "COMPOSER=%composer%" %haslyrics%-tag-from-

TOC извлечённого CD

Трек | Старт | Длительность | Начальный сектор | Конечный сектор
-----------------------------------
1 | 0:00.00 | 4:33.45 | 0 | 20519
2 | 4:33.45 | 5:11.20 | 20520 | 43864
3 | 9:44.65 | 5:14.60 | 43865 | 67474
4 | 14:59.50 | 4:49.70 | 67475 | 89219
5 | 19:49.45 | 4:58.40 | 89220 | 111609
6 | 24:48.10 | 4:28.35 | 111610 | 131744
7 | 29:16.45 | 5:53.30 | 131745 | 158249
8 | 35:10.00 | 5:02.07 | 158250 | 180906
9 | 40:12.07 | 5:09.33 | 180907 | 204114
10 | 45:21.40 | 4:59.72 | 204115 | 226611
11 | 50:21.37 | 5:08.68 | 226612 | 249779
12 | 55:30.30 | 5:13.47 | 249780 | 273301

Трек 1

Имя файла D:\FLAC\01 Off The Hook.wav

Длина предзазора 0:00:02.00

Пиковый уровень 100.0 %
Скорость извлечения 1.8 X
Качество трека 100.0 %
CRC теста C893A849
CRC копии C893A849
Точное извлечение (достоверность 4) [57C2B1CD] (AR v2)
Копирование... OK

Трек 2

Имя файла D:\FLAC\02 What's The Word.wav

Пиковый уровень 100.0 %
Скорость извлечения 2.1 X
Качество трека 100.0 %
CRC теста AE586FED
CRC копии AE586FED
Точное извлечение (достоверность 4) [C63B72A9] (AR v2)
Копирование... OK

Трек 3

Имя файла D:\FLAC\03 Gina.wav

Пиковый уровень 94.4 %
Скорость извлечения 2.3 X
Качество трека 100.0 %
CRC теста 125286FF
CRC копии 125286FF
Точное извлечение (достоверность 4) [370A9D29] (AR v2)
Копирование... OK

Трек 4

Имя файла D:\FLAC\04 Ain't It Good To Know.wav

Пиковый уровень 100.0 %
Скорость извлечения 2.5 X
Качество трека 100.0 %
CRC теста 010B613D
CRC копии 010B613D
Точное извлечение (достоверность 4) [07D25848] (AR v2)
Копирование... OK

Трек 5

Имя файла D:\FLAC\05 In The Pocket.wav

Длина предзазора 0:00:00.55

Пиковый уровень 100.0 %
Скорость извлечения 2.7 X
Качество трека 100.0 %
CRC теста 28CA0FC6
CRC копии 28CA0FC6
Точное извлечение (достоверность 4) [7B2E47E5] (AR v2)
Копирование... OK

Трек 6

Имя файла D:\FLAC\06 Love Jones.wav

Длина предзазора 0:00:00.55

Пиковый уровень 100.0 %
Скорость извлечения 2.8 X
Качество трека 100.0 %
CRC теста DAAED9F2
CRC копии DAAED9F2
Точное извлечение (достоверность 4) [21CC10C7] (AR v2)
Копирование... OK

Трек 7

Имя файла D:\FLAC\07 In My Bedroom.wav

Пиковый уровень 100.0 %
Скорость извлечения 3.0 X
Качество трека 100.0 %
CRC теста 96938160
CRC копии 96938160
Точное извлечение (достоверность 4) [C7FB4FAF] (AR v2)
Копирование... OK

Трек 8

Имя файла D:\FLAC\08 She's Got Somethin'.wav

Пиковый уровень 100.0 %
Скорость извлечения 2.8 X
Качество трека 99.9 %
CRC теста 6004F1AB
CRC копии 6004F1AB
Точное извлечение (достоверность 4) [46367B6D] (AR v2)
Копирование... OK

Трек 9

Имя файла D:\FLAC\09 So Sorry.wav

Длина предзазора 0:00:01.55

Пиковый уровень 100.0 %
Скорость извлечения 3.0 X
Качество трека 99.9 %
CRC теста 2543625F
CRC копии 2543625F
Точное извлечение (достоверность 4) [EDFF3FB3] (AR v2)
Копирование... OK

Трек 10

Имя файла D:\FLAC\10 Say Love Say When.wav

Пиковый уровень 100.0 %
Скорость извлечения 3.5 X
Качество трека 100.0 %
CRC теста 3AF4CEBC
CRC копии 3AF4CEBC
Точное извлечение (достоверность 4) [6C840989] (AR v2)
Копирование... OK

Трек 11

Имя файла D:\FLAC\11 This Must Be Love.wav

Пиковый уровень 100.0 %
Скорость извлечения 3.6 X
Качество трека 100.0 %
CRC теста 7805B8F9
CRC копии 7805B8F9
Точное извлечение (достоверность 4) [9A161B7F] (AR v2)
Копирование... OK

Трек 12

Имя файла D:\FLAC\12 Seduction.wav

Длина предзазора 0:00:02.55

Пиковый уровень 94.4 %
Скорость извлечения 3.7 X
Качество трека 100.0 %
CRC теста 551A886D
CRC копии 551A886D
Точное извлечение (достоверность 4) [0D820D6D] (AR v2)
Копирование... OK

Все треки извлечены точно

Ошибок не произошло

Конец отчёта

-- CUETools DB Plugin V2.1.4

[CTDB TOCID: LDWZZSLnHjFAsQgMCg0fIQZ1lQM-] found
Submit result: LDWZZSLnHjFAsQgMCg0fIQZ1lQM- has been confirmed
Track | CTDB Status
1 | (2/2) Accurately ripped
2 | (2/2) Accurately ripped
3 | (2/2) Accurately ripped
4 | (2/2) Accurately ripped
5 | (2/2) Accurately ripped
6 | (2/2) Accurately ripped
7 | (2/2) Accurately ripped
8 | (2/2) Accurately ripped
9 | (2/2) Accurately ripped
10 | (2/2) Accurately ripped
11 | (2/2) Accurately ripped
12 | (2/2) Accurately ripped

==== Контрольная сумма отчёта 374BCDD744C5B5098BD110673FC5FA9B5F04009EE0C23CE586E92338CB3681A6 ====

DR log


foobar2000 1.2 / Dynamic Range Meter 1.1.1
log date: 2016-03-25 13:54:03

----------------------------------------
Analyzed: JK / What's The Word
----------------------------------------

DR Peak RMS Duration Track
----------------------------------------
DR12 0.00 dB -14.07 dB 4:34 01-Off The Hook
DR13 0.00 dB -14.97 dB 5:11 02-What's The Word
DR12 -0.50 dB -13.93 dB 5:15 03-Gina
DR12 0.00 dB -14.29 dB 4:50 04-Ain't It Good To Know
DR12 0.00 dB -13.99 dB 4:59 05-In The Pocket
DR12 0.00 dB -13.69 dB 4:28 06-Love Jones
DR14 0.00 dB -15.50 dB 5:53 07-In My Bedroom
DR13 0.00 dB -14.06 dB 5:02 08-She's Got Somethin'
DR12 0.00 dB -13.72 dB 5:09 09-So Sorry
DR11 0.00 dB -13.35 dB 5:00 10-Say Love Say When
DR12 0.00 dB -13.98 dB 5:09 11-This Must Be Love
DR12 -0.50 dB -15.63 dB 5:14 12-Seduction
----------------------------------------

Number of tracks: 12
Official DR value: DR12

Samplerate: 44100 Hz
Channels: 2
Bits per sample: 16
Bitrate: 820 kbps
Codec: FLAC
================================================================================


Password: designol
Download link:

Buy Premium To Support Me & Get Resumable Support & Max Speed:



Links are Interchangeable - No Password - Single Extraction
Direct Download

Tags: Kipnis

Comments
Name:*
E-Mail:*
Add Comments:
Enter Code: *