Download Now

Piero Piccioni - The Seduction of Piero Piccioni (2005)

Piero Piccioni - The Seduction of Piero Piccioni (2005)
EAC | FLAC (Image) + cue.+log ~ 340 Mb | Mp3, CBR320 kbps ~ 152 Mb | Scans included
Soundtracks, Score, Easy Listening, Jazz | Label: √Čl/Cherry Red | # ACMEM 40CD | 01:00:05

One of Italy's most prolific and creative composers, Turin-born Piero Piccioni released dozens of scores for many different types of films during his lifetime, and wrote hundred of songs, the most alluring and provocative of which are collected here on The Seduction of Piero Piccioni. Culling tracks from C'Era Una Volta, Fumo di Londra, Mr. Dante Fontana, and I Giovani Tigri, among others, Piccioni's music captures the warmth and innovation of Italian pop music of the time combined with the power to truly propel and define a particular scene. There are a lot of great, fun tracks here - "Easy Dreamer," "Una Colt in Mano al Diavolo," "Capriccio," "Mr. Dante Fontana," and "Richmond Bridge" to name a few - so for anyone interested either in Italian film or Italian music, or just film and music in general, The Seduction of Piero Piccioni is a must-have.

Tracklist:

01. Capriccio (03:34)
02. Aspetto Ancora un Giorno (02:31)
03. Sognando la Tua Voce (03:58)
04. Tema del Principe Rodrigo (alt. version) (02:04)
05. Amore in Fiore (Love in Flower) (02:03)
06. C'era Una Volta - finale (01:53)
07. Mr Dante Fontana (03:40)
08. Abigaille (02:57)
09. Richmond Bridge (02:45)
10. Fortuna (02:57)
11. Easy Dreamer (03:47)
12. Nolan Theme (04:27)
13. Lo Non Perdono... Uccido! (main title) (02:04)
14. Cantina (02:49)
15. Una Colt In Mano Al Diavolo (main title, first alternate) (03:05)
16. Mystery (04:15)
17. Sycamore Trails (instrumental) (02:17)
18. Coming to the Point (03:31)
19. Sycamore Trails (vocal) (02:18)
20. Il Dopolotta (03:01)


EAC log


Exact Audio Copy V1.0 beta 3 from 29. August 2011

EAC extraction logfile from 3. May 2014, 22:39

Piero Piccioni / The Seduction of Piero Piccioni

Used drive : MATSHITADVD-RAM UJ-841S Adapter: 1 ID: 0

Read mode : Secure
Utilize accurate stream : Yes
Defeat audio cache : Yes
Make use of C2 pointers : No

Read offset correction : 102
Overread into Lead-In and Lead-Out : No
Fill up missing offset samples with silence : Yes
Delete leading and trailing silent blocks : No
Null samples used in CRC calculations : Yes
Used interface : Native Win32 interface for Win NT & 2000

Used output format : User Defined Encoder
Selected bitrate : 320 kBit/s
Quality : High
Add ID3 tag : No
Command line compressor : C:\Program Files\FLAC\flac.exe
Additional command line options : -V -8 -T "Date=%year%" -T "Genre=%genre%" %source%

TOC of the extracted CD

Track | Start | Length | Start sector | End sector
-----------------------------
1 | 0:00.00 | 3:34.26 | 0 | 16075
2 | 3:34.26 | 2:31.30 | 16076 | 27430
3 | 6:05.56 | 3:58.35 | 27431 | 45315
4 | 10:04.16 | 2:04.34 | 45316 | 54649
5 | 12:08.50 | 2:03.61 | 54650 | 63935
6 | 14:12.36 | 1:53.05 | 63936 | 72415
7 | 16:05.41 | 3:40.02 | 72416 | 88917
8 | 19:45.43 | 2:57.51 | 88918 | 102243
9 | 22:43.19 | 2:45.21 | 102244 | 114639
10 | 25:28.40 | 2:57.46 | 114640 | 127960
11 | 28:26.11 | 3:47.36 | 127961 | 145021
12 | 32:13.47 | 4:27.45 | 145022 | 165091
13 | 36:41.17 | 2:04.50 | 165092 | 174441
14 | 38:45.67 | 2:49.65 | 174442 | 187181
15 | 41:35.57 | 3:05.21 | 187182 | 201077
16 | 44:41.03 | 4:15.67 | 201078 | 220269
17 | 48:56.70 | 2:17.13 | 220270 | 230557
18 | 51:14.08 | 3:31.31 | 230558 | 246413
19 | 54:45.39 | 2:18.68 | 246414 | 256831
20 | 57:04.32 | 3:01.11 | 256832 | 270417

Range status and errors

Selected range

Filename F:\Music\Piero Piccioni - The Seduction of Piero Piccioni\Piero Piccioni - The Seduction of Piero Piccioni.wav

Peak level 100.0 %
Extraction speed 0.4 X
Range quality 99.6 %
Test CRC ABB131D1
Copy CRC ABB131D1
Copy OK

No errors occurred


AccurateRip summary

Track 1 accurately ripped (confidence 1) [3BE444C5] (AR v2)
Track 2 accurately ripped (confidence 1) [0B884177] (AR v2)
Track 3 accurately ripped (confidence 1) [794D6611] (AR v2)
Track 4 accurately ripped (confidence 1) [ED5670EA] (AR v2)
Track 5 accurately ripped (confidence 1) [565C21C4] (AR v2)
Track 6 accurately ripped (confidence 1) [1A748688] (AR v2)
Track 7 accurately ripped (confidence 1) 730BCD5 (AR v2)
Track 8 accurately ripped (confidence 1) [3FEA52EE] (AR v2)
Track 9 accurately ripped (confidence 1) [226C5C30] (AR v2)
Track 10 accurately ripped (confidence 1) [8A23CD20] (AR v2)
Track 11 accurately ripped (confidence 1) [0FB0A7CB] (AR v2)
Track 12 accurately ripped (confidence 1) [D280F38B] (AR v2)
Track 13 accurately ripped (confidence 1) [3CAE1021] (AR v2)
Track 14 accurately ripped (confidence 1) [80C6E09F] (AR v2)
Track 15 accurately ripped (confidence 1) [2AFE6A27] (AR v2)
Track 16 accurately ripped (confidence 1) [FAE061EA] (AR v2)
Track 17 accurately ripped (confidence 1) [DA7F6B7B] (AR v2)
Track 18 accurately ripped (confidence 1) [47363EF3] (AR v2)
Track 19 accurately ripped (confidence 1) [A6037579] (AR v2)
Track 20 accurately ripped (confidence 1) [4FFA35A9] (AR v2)

All tracks accurately ripped

End of status report

==== Log checksum ACC4C24901A9EE41C531980C9464CEAA6F31DB1E8BC03FCAFE9CE9494CE5E6E3 ====

DR log


foobar2000 1.2 / Dynamic Range Meter 1.1.1
log date: 2016-03-25 14:15:51

----------------------------------------
Analyzed: Piero Piccioni / The Seduction of Piero Piccioni
----------------------------------------

DR Peak RMS Duration Track
----------------------------------------
DR10 -0.40 dB -13.06 dB 3:34 01-Capriccio
DR11 -0.18 dB -14.12 dB 2:31 02-Aspetto Ancora un Giorno
DR11 -0.68 dB -15.95 dB 3:58 03-Sognando la Tua Voce
DR9 -1.00 dB -12.61 dB 2:04 04-Tema del Principe Rodrigo (alt. version)
DR10 -2.71 dB -15.68 dB 2:04 05-Amore in Fiore (Love in Flower)
DR8 -1.35 dB -11.97 dB 1:53 06-C'era Una Volta - finale
DR10 0.00 dB -11.40 dB 3:40 07-Mr Dante Fontana
DR12 0.00 dB -14.22 dB 2:58 08-Abigaille
DR9 -1.67 dB -14.04 dB 2:45 09-Richmond Bridge
DR10 -0.27 dB -13.92 dB 2:58 10-Fortuna
DR13 -1.41 dB -17.54 dB 3:47 11-Easy Dreamer
DR10 0.00 dB -12.22 dB 4:28 12-Nolan Theme
DR10 -1.00 dB -13.16 dB 2:05 13-Lo Non Perdono... Uccido! (main title)
DR12 0.00 dB -16.48 dB 2:50 14-Cantina
DR10 0.00 dB -13.94 dB 3:05 15-Una Colt In Mano Al Diavolo (main title, first alternate)
DR10 0.00 dB -11.97 dB 4:16 16-Mystery
DR10 -1.82 dB -15.74 dB 2:17 17-Sycamore Trails (instrumental)
DR12 -0.17 dB -14.94 dB 3:31 18-Coming to the Point
DR11 -2.08 dB -16.71 dB 2:19 19-Sycamore Trails (vocal)
DR12 -0.07 dB -14.22 dB 3:01 20-Il Dopolotta
----------------------------------------

Number of tracks: 20
Official DR value: DR10

Samplerate: 44100 Hz
Channels: 2
Bits per sample: 16
Bitrate: 736 kbps
Codec: FLAC
================================================================================ Pass: avaxhome
Download link:

Buy Premium To Support Me & Get Resumable Support & Max Speed:



Links are Interchangeable - No Password - Single Extraction
Direct Download

Tags: Piccioni, Seduction, Piccioni

Comments
Name:*
E-Mail:*
Add Comments:
Enter Code: *