Download Now

Kopecky - 3 Studio Albums (1999-2006)

Kopecky - 3 Studio Albums (1999-2006)
EAC Rip | FLAC (image+.cue+log) - 1,13 GB | MP3 CBR 320 kbps (LAME 3.93) - 386 MB | Covers - 167 MB
Genre: Instrumental Progressive Rock | RAR 3% Rec. | Label: Mellow Records, Musea, Unicorn Digital

Three brothers - Joe, William and Paul - from Racine WI. Joe plays guitar and sings, William plays electric bass, keyboards and sitar, and Paul is a drummer. KOPECKY is an American band with a variety of influences. They have elements from the latest era of King Crimson, some prog metal, some ethnic influences and even some more traditional prog influences. Occasionally the approach is similar to Terry Bozzio's Black Light Syndrome. The result is a powerful sound with a variety of approaches and interesting musicianship. The drummer Paul passed away in 2009. The band made a memorial concert in 2011 on his 40th birthday with many bands participating.

Tracklist:
01. Crimson Crime 2-1-3
02. Sky-Blue Hair
03. Sukha
04. The Drowning Waters
05. The Rise And Fall Of Stella Morbida
06. Yama
07. Birdsong The Color Of Pyramids
08. Autumn Swirl
09. Al Aaraaf

Total time: 51:16

EAC log


Exact Audio Copy V0.99 prebeta 5 from 4. May 2009

EAC extraction logfile from 26. August 2010, 17:41

Kopecky / Kopechy

Used drive : HL-DT-STDVD-RAM GSA-H55N Adapter: 1 ID: 0

Read mode : Secure
Utilize accurate stream : Yes
Defeat audio cache : Yes
Make use of C2 pointers : No

Read offset correction : 102
Overread into Lead-In and Lead-Out : No
Fill up missing offset samples with silence : Yes
Delete leading and trailing silent blocks : No
Null samples used in CRC calculations : Yes
Used interface : Native Win32 interface for Win NT & 2000

Used output format : User Defined Encoder
Selected bitrate : 32 kBit/s
Quality : High
Add ID3 tag : No
Command line compressor : D:\Program Files 2\Exact Audio Copy\FLAC\FLAC.EXE
Additional command line options : -6 -V %s

TOC of the extracted CD

Track | Start | Length | Start sector | End sector
-----------------------------
1 | 0:00.00 | 4:43.52 | 0 | 21276
2 | 4:43.52 | 5:43.20 | 21277 | 47021
3 | 10:26.72 | 3:18.53 | 47022 | 61924
4 | 13:45.50 | 6:14.04 | 61925 | 89978
5 | 19:59.54 | 5:32.22 | 89979 | 114900
6 | 25:32.01 | 7:53.35 | 114901 | 150410
7 | 33:25.36 | 2:21.53 | 150411 | 161038
8 | 35:47.14 | 6:25.67 | 161039 | 189980
9 | 42:13.06 | 9:02.57 | 189981 | 230687

Range status and errors

Selected range

Filename D:\MusicFiles\FLAC Temp\Kopecky - Kopecky\Kopecky - Kopechy.wav

Peak level 100.0 %
Range quality 99.9 %
Copy CRC C4990D02
Copy OK

No errors occurred


AccurateRip summary

Track 1 cannot be verified as accurate (confidence 2) [7FC65FD1], AccurateRip returned [0BADED1B]
Track 2 cannot be verified as accurate (confidence 2) [9E2E9C85], AccurateRip returned [103044ED]
Track 3 cannot be verified as accurate (confidence 2) [47B045DD], AccurateRip returned [19A0CB4F]
Track 4 cannot be verified as accurate (confidence 2) 300E9D5, AccurateRip returned [DC4B2E9F]
Track 5 cannot be verified as accurate (confidence 2) [50C5B0FB], AccurateRip returned [6129042B]
Track 6 not present in database
Track 7 cannot be verified as accurate (confidence 2) [A2B4750B], AccurateRip returned [644F81A7]
Track 8 cannot be verified as accurate (confidence 2) [CA74E56D], AccurateRip returned [DAD33007]
Track 9 cannot be verified as accurate (confidence 2) [C879FDB0], AccurateRip returned [45C76C97]

8 track(s) could not be verified as accurate
1 track(s) not present in the AccurateRip database

No tracks could be verified as accurate
You may have a different pressing from the one(s) in the database

End of status report

CUETools log


[CUETools log; Date: 19.03.2016 2:36:31; Version: 2.1.4]
[CTDB TOCID: XuHIhayXXdFcnTsuGqAP5ItbPp0-] found.
Track | CTDB Status
1 | (4/4) Accurately ripped
2 | (4/4) Accurately ripped
3 | (4/4) Accurately ripped
4 | (4/4) Accurately ripped
5 | (4/4) Accurately ripped
6 | (4/4) Accurately ripped
7 | (4/4) Accurately ripped
8 | (4/4) Accurately ripped
9 | (4/4) Accurately ripped
[AccurateRip ID: 001048d7-0078fac8-6b0c0309] found.
Track [ CRC | V2 ] Status
01 [7fc65fd1|241ebed6] (0+2/6) Accurately ripped
02 [9e2e9c85|c613e0ba] (0+2/6) Accurately ripped
03 [47b045dd|62549adf] (0+2/6) Accurately ripped
04 300e9d5|bf18349f (0+2/6) Accurately ripped
05 [50c5b0fb|99d39376] (0+2/6) Accurately ripped
06 [57e8a5be|e23efac4] (0+2/4) Accurately ripped
07 [a2b4750b|f52da38e] (0+2/6) Accurately ripped
08 [ca74e56d|bf344940] (0+2/6) Accurately ripped
09 [c879fdb0|457b1ff6] (0+2/6) Accurately ripped
Offsetted by 292:
01 [d4914f62] (2/6) Accurately ripped
02 [60339c39] (2/6) Accurately ripped
03 [fdfab136] (2/6) Accurately ripped
04 [f665aeff] (2/6) Accurately ripped
05 [fa2d0804] (2/6) Accurately ripped
06 [1980b497] (2/4) Accurately ripped
07 [20fa76c8] (2/6) Accurately ripped
08 [a142c9e7] (2/6) Accurately ripped
09 [56690ecb] (2/6) Accurately ripped
Offsetted by -664:
01 [0baded1b] (2/6) Accurately ripped
02 [103044ed] (2/6) Accurately ripped
03 [19a0cb4f] (2/6) Accurately ripped
04 [dc4b2e9f] (2/6) Accurately ripped
05 [6129042b] (2/6) Accurately ripped
06 [0234151e] (0/4) No match
07 [644f81a7] (2/6) Accurately ripped
08 [dad33007] (2/6) Accurately ripped
09 [45c76c97] (2/6) Accurately ripped

Track Peak [ CRC32 ] [W/O NULL] [ LOG ]
- 100,0 [C4990D02] [DC30AC6B] CRC32
01 100,0 [484801C2] [081C0BAB]
02 100,0 [641F4FF6] [66EE436F]
03 100,0 [C0C1D659] [26A7DDC0]
04 100,0 [7A5F5619] [2A017343]
05 100,0 [88C7745E] [01322C93]
06 100,0 [03664A71] [7AB67A75]
07 99,9 [7E4EDDA2] [274022EF]
08 100,0 [565F19B1] 98B84B4
09 100,0 [8CCF6BC5] [636D7C3F]



Kopecky - 3 Studio Albums (1999-2006)

Kopecky - Sunset Gun (2003) (Repost)
EAC Rip | FLAC (image+.cue+log) - 391 MB | MP3 CBR 320 kbps (LAME 3.93) - 131 MB | Covers - 90 MB
Genre: Instrumental Progressive Rock | RAR 3% Rec. | Label: Musea (FGBG 4498.AR)

Tracklist:
01. Sunset Gun
02. Ascension
03. The Divine Art of Flying
04. Selqet's Kiss
05. Creation's Brief Gift
06. Temptation's Screaming-Ground
07. Departure

Total time: 55:40

EAC log


Exact Audio Copy V0.99 prebeta 5 from 4. May 2009

EAC extraction logfile from 23. May 2010, 11:01

Kopecky / Sunset Gun

Used drive : HL-DT-STDVD-RAM GSA-H55N Adapter: 1 ID: 0

Read mode : Secure
Utilize accurate stream : Yes
Defeat audio cache : Yes
Make use of C2 pointers : No

Read offset correction : 102
Overread into Lead-In and Lead-Out : No
Fill up missing offset samples with silence : Yes
Delete leading and trailing silent blocks : No
Null samples used in CRC calculations : Yes
Used interface : Native Win32 interface for Win NT & 2000

Used output format : User Defined Encoder
Selected bitrate : 32 kBit/s
Quality : High
Add ID3 tag : No
Command line compressor : D:\Program Files 2\Exact Audio Copy\FLAC\FLAC.EXE
Additional command line options : -6 -V %s

TOC of the extracted CD

Track | Start | Length | Start sector | End sector
-----------------------------
1 | 0:00.00 | 8:00.72 | 0 | 36071
2 | 8:00.72 | 5:34.21 | 36072 | 61142
3 | 13:35.18 | 5:25.39 | 61143 | 85556
4 | 19:00.57 | 10:52.36 | 85557 | 134492
5 | 29:53.18 | 10:11.66 | 134493 | 180383
6 | 40:05.09 | 9:52.57 | 180384 | 224840
7 | 49:57.66 | 5:42.09 | 224841 | 250499

Range status and errors

Selected range

Filename D:\MusicFiles\FLAC Temp\Kopecky - Sunset Gun\Kopecky - Sunset Gun.wav

Peak level 98.8 %
Range quality 99.9 %
Test CRC D32824BE
Copy CRC D32824BE
Copy OK

No errors occurred


AccurateRip summary

Track 1 not present in database
Track 2 not present in database
Track 3 not present in database
Track 4 not present in database
Track 5 not present in database
Track 6 not present in database
Track 7 not present in database

None of the tracks are present in the AccurateRip database

End of status report

CUETools log


[CUETools log; Date: 19.03.2016 2:38:54; Version: 2.1.4]
[CTDB TOCID: cb4VwMSY.Vzv.hI32w4dhGGeMOo-] found.
Track | CTDB Status
1 | (5/5) Accurately ripped
2 | (5/5) Accurately ripped
3 | (5/5) Accurately ripped
4 | (5/5) Accurately ripped
5 | (5/5) Accurately ripped
6 | (5/5) Accurately ripped
7 | (5/5) Accurately ripped
[AccurateRip ID: 000ed8be-005a7dda-680d0c07] found.
Track [ CRC | V2 ] Status
01 [5d133b07|71eeb7b6] (2+0/2) Accurately ripped
02 [275939ad|56c65200] (2+0/2) Accurately ripped
03 [29999729|4484db75] (2+0/2) Accurately ripped
04 [35a5edda|4fe0ea96] (2+0/2) Accurately ripped
05 [d8c36958|9932b640] (2+0/2) Accurately ripped
06 [04ed49ab|b955899b] (2+0/2) Accurately ripped
07 [eed51445|debd3b81] (2+0/2) Accurately ripped

Track Peak [ CRC32 ] [W/O NULL] [ LOG ]
- 98,8 [D32824BE] [9B243D6D] CRC32
01 98,8 [F066C97D] [FA294624]
02 98,8 [199334A0] [0EEEF5D5]
03 98,8 [DEF9C838] [9C2C92F2]
04 98,8 [9643149C] [7A13FC2B]
05 98,8 [F63DDFC2] [6446FCF0]
06 98,8 [418D0211] [0A690FF5]
07 98,8 [0394840F] [60A538B3]



Kopecky - 3 Studio Albums (1999-2006)

Kopecky - Blood (2006)
EAC Rip | FLAC (image+.cue+log) - 412 MB | MP3 CBR 320 kbps (LAME 3.93) - 135 MB | Covers - 62 MB
Genre: Instrumental Progressive Rock | RAR 3% Rec. | Label: Unicorn Digital (UNCR-5029)

Tracklist:
01. Garden Of Immolation
02. Infernal Desire Machine
03. Moontown
04. ShiChuang
05. Eden's Flow
06. The Red Path
07. Opium

Total time: 57:40

EAC log


Exact Audio Copy V0.99 prebeta 5 from 4. May 2009

EAC extraction logfile from 23. May 2010, 12:19

Kopecky / Blood

Used drive : HL-DT-STDVD-RAM GSA-H55N Adapter: 1 ID: 0

Read mode : Secure
Utilize accurate stream : Yes
Defeat audio cache : Yes
Make use of C2 pointers : No

Read offset correction : 102
Overread into Lead-In and Lead-Out : No
Fill up missing offset samples with silence : Yes
Delete leading and trailing silent blocks : No
Null samples used in CRC calculations : Yes
Used interface : Native Win32 interface for Win NT & 2000

Used output format : User Defined Encoder
Selected bitrate : 32 kBit/s
Quality : High
Add ID3 tag : No
Command line compressor : D:\Program Files 2\Exact Audio Copy\FLAC\FLAC.EXE
Additional command line options : -6 -V %s

TOC of the extracted CD

Track | Start | Length | Start sector | End sector
-----------------------------
1 | 0:00.00 | 7:12.20 | 0 | 32419
2 | 7:12.20 | 5:00.39 | 32420 | 54958
3 | 12:12.59 | 7:22.17 | 54959 | 88125
4 | 19:35.01 | 11:21.16 | 88126 | 139216
5 | 30:56.17 | 5:00.33 | 139217 | 161749
6 | 35:56.50 | 8:46.48 | 161750 | 201247
7 | 44:43.23 | 12:56.52 | 201248 | 259499

Range status and errors

Selected range

Filename D:\MusicFiles\FLAC Temp\Kopecky - Blood\Kopecky - Blood.wav

Peak level 97.1 %
Range quality 99.9 %
Test CRC 55829C22
Copy CRC 55829C22
Copy OK

No errors occurred


AccurateRip summary

Track 1 cannot be verified as accurate (confidence 4) [6E8C55D4], AccurateRip returned [F10A678E]
Track 2 cannot be verified as accurate (confidence 4) [06D97F7F], AccurateRip returned [D8F099F3]
Track 3 cannot be verified as accurate (confidence 4) [2B846EF7], AccurateRip returned [5274DD81]
Track 4 cannot be verified as accurate (confidence 4) [E6B509A2], AccurateRip returned [E63B865C]
Track 5 cannot be verified as accurate (confidence 4) [3E387822], AccurateRip returned [8837AF19]
Track 6 cannot be verified as accurate (confidence 4) [0A0194CC], AccurateRip returned [2BCEEE9D]
Track 7 cannot be verified as accurate (confidence 3) [29A5FC0C], AccurateRip returned [3D82FCFD]

No tracks could be verified as accurate
You may have a different pressing from the one(s) in the database

End of status report

CUETools log


[CUETools log; Date: 19.03.2016 2:35:42; Version: 2.1.4]
[CTDB TOCID: DxsPNnUROeLFM9RR4wYyeIlAonc-] found.
Track | CTDB Status
1 | (0/2) No match
2 | (0/2) No match
3 | (0/2) No match
4 | (0/2) No match
5 | (0/2) No match
6 | (0/2) No match
7 | (0/2) No match
[AccurateRip ID: 000e4d04-00577ca7-660d8407] found.
Track [ CRC | V2 ] Status
01 [6e8c55d4|eb3ec594] (0+0/6) No match
02 [06d97f7f|a01106d7] (0+0/6) No match
03 [2b846ef7|8ae02c4e] (0+0/6) No match
04 [e6b509a2|d5620170] (0+0/6) No match
05 [3e387822|c2fcbb6b] (0+0/6) No match
06 [0a0194cc|ef321f21] (0+0/6) No match
07 [29a5fc0c|ac66622a] (0+0/5) No match

Track Peak [ CRC32 ] [W/O NULL] [ LOG ]
- 97,1 [55829C22] 155559C CRC32
01 97,1 [FEFADADA] [055A731F]
02 96,5 [E6EED3B3] [70884CF2]
03 96,8 [2363FF36] [AFE1E033]
04 96,6 [2987E532] [A63A96F7]
05 96,7 [9BAC50B6] [074D350B]
06 96,9 [65783CBC] [963C9027]
07 97,0 [5B28B0A8] [E55F9B59]
Download link:

Buy Premium To Support Me & Get Resumable Support & Max Speed:



Links are Interchangeable - No Password - Single Extraction
Direct Download

Tags: Kopecky, Studio, Albums

Comments
Name:*
E-Mail:*
Add Comments:
Enter Code: *