Download Now

Lighthouse - Sunny Days (1972) [Remastered 2008]

Lighthouse - Sunny Days (1972) [Remastered 2008]
EAC Rip | FLAC (image & cue & log) | 288 MB | MP3 CBR 320 kbps | 95 MB | Scans (JPEG) | 34 MB | 40:56
Genre: Jazz-Rock / Brass Rock / Psychedelic Rock | Country: Canada | Label: Retro Disc International | RDI 33032

The title track to the Sunny Days album became one of Lighthouse's two Top 40 hits, peaking at number 34 in November of 1972. Sunny Days was the band's seventh album, yet their full-scale sound and spirited rock & roll style was still very much intact. The saxophone and trombone work that gave them the label as a poor man's Chicago can be found streaming through songs like "Silver Bird" and "Letter Home," while "Broken Guitar Blues" became one of their hardiest efforts, receiving quite a bit of air play on Canadian radio stations.

Tracklist:

1. Silver Bird 3:02
2. Sunny Days 4:13
3. You Girl 3:56
4. Beneath My Woman 6:57
5. Merlin 4:15
6. Broken Guitar Blues 4:25
7. Letter Home 4:07
8. You Give To Me 7:16
9. Lonely Places 3:21

EAC log


Exact Audio Copy V1.1 from 23. June 2015

Отчёт EAC об извлечении, выполненном 13. февраля 2016, 12:44

Lighthouse / Sunny Days

Дисковод: ASUS DRW-24B3ST Adapter: 0 ID: 0

Режим чтения : Достоверность
Использование точного потока : Да
Отключение кэша аудио : Да
Использование указателей C2 : Нет

Коррекция смещения при чтении : 6
Способность читать области Lead-in и Lead-out : Нет
Заполнение пропущенных сэмплов тишиной : Да
Удаление блоков с тишиной в начале и конце : Нет
При вычислениях CRC использовались нулевые сэмплы : Да
Интерфейс : Установленный внешний ASPI-интерфейс

Выходной формат : Пользовательский кодировщик
Выбранный битрейт : 1024 kBit/s
Качество : Высокий
Добавление ID3-тега : Нет
Утилита сжатия : C:\Program Files (x86)\Exact Audio Copy\FLAC\FLAC.EXE
Дополнительные параметры : -6 -V -T "ARTIST=%artist%" -T "TITLE=%title%" -T "ALBUM=%albumtitle%" -T "DATE=%year%" -T "TRACKNUMBER=%tracknr%" -T "GENRE=%genre%" -T "COMMENT=%comment%" -T "BAND=%albuminterpret%" -T "ALBUMARTIST=%albuminterpret%" -T "COMPOSER=%composer%" %haslyrics%-tag-from-file=LYRICS="%lyricsfile%"%haslyrics% -T "DISCNUMBER=%cdnumber%" -T "TOTALDISCS=%totalcds%" -T "TOTALTRACKS=%numtracks%" %hascover%-picture="%coverfile%"%hascover% %source% -o %dest%

TOC извлечённого CD

Трек | Старт | Длительность | Начальный сектор | Конечный сектор
-----------------------------------
1 | 0:00.00 | 2:57.25 | 0 | 13299
2 | 2:57.25 | 4:09.43 | 13300 | 32017
3 | 7:06.68 | 3:54.23 | 32018 | 49590
4 | 11:01.16 | 6:49.42 | 49591 | 80307
5 | 17:50.58 | 4:08.68 | 80308 | 98975
6 | 21:59.51 | 4:20.42 | 98976 | 118517
7 | 26:20.18 | 4:06.58 | 118518 | 137025
8 | 30:27.01 | 7:10.65 | 137026 | 169340
9 | 37:37.66 | 3:17.56 | 169341 | 184171

Характеристики диапазона извлечения и сообщения об ошибках

Выбранный диапазон

Имя файла E:\Torrents\Lighthouse - 1972 - Sunny Days\Lighthouse - Sunny Days.wav

Пиковый уровень 97.7 %
Скорость извлечения 7.8 X
Качество диапазона 100.0 %
CRC теста 49365038
CRC копии 49365038
Копирование... OK

Ошибок не произошло

Конец отчёта

==== Контрольная сумма отчёта A624D1545C6EFC0F9F8BC5EC8520A70B02ED6197E6C9768C11885F64CC13DCC3 ====


Personnel

Bass - Alan Wilmot
Cello [Electric] - Dick Armin
Drums, Percussion, Guitar, Vocals - Skip Prokop
Guitar, Vocals - Ralph Cole
Piano, Vocals - Larry Smith
Tenor Saxophone, Alto Saxophone, Vocals - Dale Hillary
Trombone - Rick Stepton
Trumpet - John Naslen
Viola [5-string Electric] - Don DiNovo
Download link:

Buy Premium To Support Me & Get Resumable Support & Max Speed:



Links are Interchangeable - No Password - Single Extraction
Direct Download

Tags: Lighthouse, Remastered

Comments
Name:*
E-Mail:*
Add Comments:
Enter Code: *