Download Now

The Sonics - Boom (1966) Reissue 2007, Card Sleeve

The Sonics - Boom (1966) Reissue 2007, Card Sleeve
EAC | FLAC | Tracks (Cue&Log) ~ 138 Mb (incl 5%) | Mp3 (CBR320) ~ 97 Mb (incl 5%) | Scans included
Genre: Garage Rock, Rock & Roll | Label: Big Beat Records | # CDHP 023 | Time: 00:31:23

The Sonics' second album is every bit as explosive and influential as their debut outing, loaded with gritty Northwest rock & roll. Sandwiched in between the abrasive classics of "Cinderella" and "Don't Be Afraid of the Dark" (with the Wailers on backing vocals), the funk sass of "The Hustler" and "Shot Down," the demonic "He's Waitin'," and the sledgehammer, inside-out version of "Louie, Louie" (only three chords to play and they don't even play 'em) are the band's straight-ahead takes on old R&B chestnuts like "Skinny Minnie," "Let the Good Times Roll," "Don't You Just Know It," "Since I Fell for You," "Hitch Hike," and a nice barn-burning version of "Jenny Jenny." Where the Wailers cut down the trees and paved the highway, the Sonics were the first group from their neck of the woods to take that music somewhere wilder than their original inspirations. The second chapter of Northwest rock & roll after you absorb the Wailers' Golden Crest sides.

Tracklist:

01. Cinderella (02:42)
02. Don't Be Afraid Of The Dark (02:27)
03. Skinny Minny (02:13)
04. Let The Good Times Roll (02:01)
05. Don't You Just Know It (02:51)
06. Jenny Jenny (02:19)
07. He's Waitin' (02:41)
08. Louie Louie (02:55)
09. Since I Fell For You (04:00)
10. Hitch Hike (02:44)
11. It's Allright (02:12)
12. Shot Down (02:13)


EAC log


Exact Audio Copy V1.1 from 23. June 2015

EAC extraction logfile from 12. March 2016, 1:24

The Sonics / Boom [2007, CDHP 023]

Used drive : ASUS DRW-22B3S Adapter: 1 ID: 0

Read mode : Secure
Utilize accurate stream : Yes
Defeat audio cache : Yes
Make use of C2 pointers : No

Read offset correction : 6
Overread into Lead-In and Lead-Out : No
Fill up missing offset samples with silence : Yes
Delete leading and trailing silent blocks : No
Null samples used in CRC calculations : Yes
Used interface : Native Win32 interface for Win NT & 2000
Gap handling : Appended to previous track

Used output format : User Defined Encoder
Selected bitrate : 768 kBit/s
Quality : High
Add ID3 tag : No
Command line compressor : C:\Program Files\Exact Audio Copy\FLAC\FLAC.EXE
Additional command line options : -V -8 %source%

TOC of the extracted CD

Track | Start | Length | Start sector | End sector
-----------------------------
1 | 0:00.00 | 2:42.68 | 0 | 12217
2 | 2:42.68 | 2:27.26 | 12218 | 23268
3 | 5:10.19 | 2:13.19 | 23269 | 33262
4 | 7:23.38 | 2:01.19 | 33263 | 42356
5 | 9:24.57 | 2:51.58 | 42357 | 55239
6 | 12:16.40 | 2:19.19 | 55240 | 65683
7 | 14:35.59 | 2:41.74 | 65684 | 77832
8 | 17:17.58 | 2:55.19 | 77833 | 90976
9 | 20:13.02 | 4:00.38 | 90977 | 109014
10 | 24:13.40 | 2:44.13 | 109015 | 121327
11 | 26:57.53 | 2:12.47 | 121328 | 131274
12 | 29:10.25 | 2:13.37 | 131275 | 141286

Track 1

Filename H:\g.y.m\Sonics, The\1966 - Boom [2007, CDHP 023]\01. Cinderella.wav

Pre-gap length 0:00:02.00

Peak level 79.5 %
Extraction speed 4.6 X
Track quality 100.0 %
Test CRC C0B9F543
Copy CRC C0B9F543
Cannot be verified as accurate (confidence 4) [EBFE427C], AccurateRip returned [85C43885] (AR v2)
Copy OK

Track 2

Filename H:\g.y.m\Sonics, The\1966 - Boom [2007, CDHP 023]\02. Don't Be Afraid Of The Dark.wav

Peak level 86.8 %
Extraction speed 4.8 X
Track quality 100.0 %
Test CRC 7AC0EC71
Copy CRC 7AC0EC71
Cannot be verified as accurate (confidence 4) [E972F21A], AccurateRip returned [0A7D322C] (AR v2)
Copy OK

Track 3

Filename H:\g.y.m\Sonics, The\1966 - Boom [2007, CDHP 023]\03. Skinny Minny.wav

Peak level 81.7 %
Extraction speed 4.9 X
Track quality 100.0 %
Test CRC 53C0ACE9
Copy CRC 53C0ACE9
Cannot be verified as accurate (confidence 4) [E704A4E6], AccurateRip returned [65F404A5] (AR v2)
Copy OK

Track 4

Filename H:\g.y.m\Sonics, The\1966 - Boom [2007, CDHP 023]\04. Let The Good Times Roll.wav

Peak level 82.6 %
Extraction speed 5.1 X
Track quality 100.0 %
Test CRC 1317E0C3
Copy CRC 1317E0C3
Cannot be verified as accurate (confidence 4) [D9AD0BF0], AccurateRip returned [A211C076] (AR v2)
Copy OK

Track 5

Filename H:\g.y.m\Sonics, The\1966 - Boom [2007, CDHP 023]\05. Don't You Just Know It.wav

Peak level 81.0 %
Extraction speed 5.8 X
Track quality 100.0 %
Test CRC 49D1B4CC
Copy CRC 49D1B4CC
Cannot be verified as accurate (confidence 4) [A7483C4F], AccurateRip returned [FA072369] (AR v2)
Copy OK

Track 6

Filename H:\g.y.m\Sonics, The\1966 - Boom [2007, CDHP 023]\06. Jenny Jenny.wav

Peak level 80.7 %
Extraction speed 5.8 X
Track quality 100.0 %
Test CRC F8D7E1CD
Copy CRC F8D7E1CD
Cannot be verified as accurate (confidence 4) [DE458E72], AccurateRip returned [6B26E0C8] (AR v2)
Copy OK

Track 7

Filename H:\g.y.m\Sonics, The\1966 - Boom [2007, CDHP 023]\07. He's Waitin'.wav

Peak level 88.0 %
Extraction speed 4.8 X
Track quality 99.9 %
Test CRC F16542DF
Copy CRC F16542DF
Cannot be verified as accurate (confidence 4) [C33967A6], AccurateRip returned [C443B0AC] (AR v2)
Copy OK

Track 8

Filename H:\g.y.m\Sonics, The\1966 - Boom [2007, CDHP 023]\08. Louie Louie.wav

Peak level 80.5 %
Extraction speed 5.2 X
Track quality 99.9 %
Test CRC 458D6AF2
Copy CRC 458D6AF2
Cannot be verified as accurate (confidence 4) [FA4D4DF4], AccurateRip returned [21D7C99B] (AR v2)
Copy OK

Track 9

Filename H:\g.y.m\Sonics, The\1966 - Boom [2007, CDHP 023]\09. Since I Fell For You.wav

Peak level 83.3 %
Extraction speed 7.2 X
Track quality 100.0 %
Test CRC 41B994FC
Copy CRC 41B994FC
Cannot be verified as accurate (confidence 4) [6A162883], AccurateRip returned [2D8C3BD2] (AR v2)
Copy OK

Track 10

Filename H:\g.y.m\Sonics, The\1966 - Boom [2007, CDHP 023]\10. Hitch Hike.wav

Peak level 80.5 %
Extraction speed 7.0 X
Track quality 100.0 %
Test CRC 8FC7BB63
Copy CRC 8FC7BB63
Cannot be verified as accurate (confidence 4) [454592CF], AccurateRip returned [2CDAB92A] (AR v2)
Copy OK

Track 11

Filename H:\g.y.m\Sonics, The\1966 - Boom [2007, CDHP 023]\11. It's Allright.wav

Peak level 76.3 %
Extraction speed 7.0 X
Track quality 100.0 %
Test CRC 10B7F8D7
Copy CRC 10B7F8D7
Cannot be verified as accurate (confidence 4) [14785596], AccurateRip returned [4888C5F5] (AR v2)
Copy OK

Track 12

Filename H:\g.y.m\Sonics, The\1966 - Boom [2007, CDHP 023]\12. Shot Down.wav

Peak level 94.8 %
Extraction speed 7.0 X
Track quality 100.0 %
Test CRC 3079FAF3
Copy CRC 3079FAF3
Cannot be verified as accurate (confidence 4) [47AB1A86], AccurateRip returned [523945AF] (AR v2)
Copy OK

No tracks could be verified as accurate
You may have a different pressing from the one(s) in the database

No errors occurred

End of status report

==== Log checksum BAB3B1FBBB2B4A73542E8D7CBE6CA6838E790EBA0EF6DD58C1ED2252C050E492 ====

DR log


foobar2000 1.2 / Dynamic Range Meter 1.1.1
log date: 2016-03-17 15:29:02

----------------------------------------
Analyzed: The Sonics / Boom [2007, CDHP 023]
----------------------------------------

DR Peak RMS Duration Track
----------------------------------------
DR7 -1.98 dB -10.01 dB 2:43 01-Cinderella
DR9 -1.23 dB -11.70 dB 2:27 02-Don't Be Afraid Of The Dark
DR9 -1.75 dB -11.56 dB 2:13 03-Skinny Minny
DR7 -1.65 dB -10.68 dB 2:01 04-Let The Good Times Roll
DR9 -1.83 dB -12.00 dB 2:52 05-Don't You Just Know It
DR7 -1.86 dB -9.72 dB 2:19 06-Jenny Jenny
DR8 -1.11 dB -10.46 dB 2:42 07-He's Waitin'
DR7 -1.87 dB -9.74 dB 2:55 08-Louie Louie
DR8 -1.58 dB -12.48 dB 4:01 09-Since I Fell For You
DR7 -1.88 dB -9.84 dB 2:44 10-Hitch Hike
DR7 -2.35 dB -11.09 dB 2:13 11-It's Allright
DR9 -0.46 dB -11.70 dB 2:13 12-Shot Down
----------------------------------------

Number of tracks: 12
Official DR value: DR8

Samplerate: 44100 Hz
Channels: 2
Bits per sample: 16
Bitrate: 536 kbps
Codec: FLAC
================================================================================ Password: designol
Download link:

Buy Premium To Support Me & Get Resumable Support & Max Speed:



Links are Interchangeable - No Password - Single Extraction
Direct Download

Tags: Sonics, Reissue, Sleeve

Comments
Name:*
E-Mail:*
Add Comments:
Enter Code: *