Download Now

Thin Lizzy - The Boys Are Back In Town (1997) {Japan}

Thin Lizzy - The Boys Are Back In Town (1997)
EAC Rip | FLAC (Img) + Cue + Log ~ 303 Mb | MP3 CBR320 ~ 113 Mb
Scans Included (JPG, 300 dpi) | RAR 5% Recovery
Hard Rock | Nippon Crown #CRCL-7001

Recorded during Thin Lizzy's first Australian tour in 1978 (at a huge festival), Boys Are Back In Town was released for the first time in America through Rhino nearly 20 years after the actual concert (it was available as a Japanese import for years). The tour featured the Black Rose line-up of Lizzy - singer/bassist Phil Lynott, plus guitarists Scott Gorham and Gary Moore - but regular drummer Brian Downey was replaced by session-man Mark Nauseef for the shows (Downey remained behind to sort out 'personal problems' and would later re-join). Despite the sudden disappearance of a founding member, this brief line-up was still able to create the expected excitement of a Lizzy show...

Track List:

01. Jailbreak [0:04:30.27]
02. Bad Reputation [0:03:14.33]
03. Cowboy Song [0:05:13.00]
04. Boys Are Back In Town [0:05:02.52]
05. Waiting For An Alibi [0:05:01.00]
06. Are You Ready [0:04:39.38]
07. Me and the Boys [0:06:18.47]
08. Baby Drives Me Crazy [0:06:23.60]

Personnel:

Phil Lynott - lead vocals, bass
Scott Gorham - guitar, backing vocals
Gary Moore - guitar, backing vocals
Mark Nauseef - drums

EAC Log


Exact Audio Copy V1.1 from 23. June 2015

EAC extraction logfile from 14. March 2016, 16:57

Thin Lizzy / The Boys Are Back In Town [CRCL-7001]

Used drive : HL-DT-STBD-RE BH10LS38 Adapter: 1 ID: 1

Read mode : Secure
Utilize accurate stream : Yes
Defeat audio cache : Yes
Make use of C2 pointers : No

Read offset correction : 667
Overread into Lead-In and Lead-Out : No
Fill up missing offset samples with silence : Yes
Delete leading and trailing silent blocks : No
Null samples used in CRC calculations : Yes
Used interface : Installed external ASPI interface

Used output format : User Defined Encoder
Selected bitrate : 128 kBit/s
Quality : High
Add ID3 tag : No
Command line compressor : C:\Program Files (x86)\Exact Audio Copy\wavpack-4.60.1\wavpack.exe
Additional command line options : -hm -w "Year=%year%" -w "Genre=%genre%" %source% %dest%

TOC of the extracted CD

Track | Start | Length | Start sector | End sector
-----------------------------
1 | 0:00.00 | 4:30.27 | 0 | 20276
2 | 4:30.27 | 3:14.33 | 20277 | 34859
3 | 7:44.60 | 5:13.00 | 34860 | 58334
4 | 12:57.60 | 5:02.52 | 58335 | 81036
5 | 18:00.37 | 5:01.00 | 81037 | 103611
6 | 23:01.37 | 4:39.38 | 103612 | 124574
7 | 27:41.00 | 6:18.47 | 124575 | 152971
8 | 33:59.47 | 6:23.60 | 152972 | 181756

Range status and errors

Selected range

Filename G:\Rips by Alder\Thin Lizzy - The Boys Are Back In Town [CRCL-7001].wav

Peak level 100.0 %
Extraction speed 7.0 X
Range quality 100.0 %
Test CRC 77673E4C
Copy CRC 77673E4C
Copy OK

No errors occurred


AccurateRip summary

Track 1 accurately ripped (confidence 2) [A7423FEF] (AR v2)
Track 2 accurately ripped (confidence 2) [CE579B07] (AR v2)
Track 3 accurately ripped (confidence 2) [0B32F513] (AR v2)
Track 4 accurately ripped (confidence 2) [C212B03F] (AR v2)
Track 5 accurately ripped (confidence 2) [7D4386C5] (AR v2)
Track 6 accurately ripped (confidence 2) [4FD2B49A] (AR v2)
Track 7 accurately ripped (confidence 2) [8934A99B] (AR v2)
Track 8 accurately ripped (confidence 2) [4633E588] (AR v2)

All tracks accurately ripped

End of status report

-- CUETools DB Plugin V2.1.6

[CTDB TOCID: q62VwXSLLPOItMu4tjWeOh9ozc0-] disk not present in database
Submit result: q62VwXSLLPOItMu4tjWeOh9ozc0- has been uploaded

==== Log checksum AA396BC01B32B476855ECFB75D49B6E8F03638A3034BCECC9D200DBD798D01C6 ====

DR Log


foobar2000 1.2.6 / Dynamic Range Meter 1.1.1
log date: 2016-03-15 03:20:22

----------------------------------------
Analyzed: Thin Lizzy / The Boys Are Back In Town [CRCL-7001]
----------------------------------------

DR Peak RMS Duration Track
----------------------------------------
DR5 0.00 dB -6.23 dB 4:30 01-Jailbreak
DR6 0.00 dB -7.05 dB 3:14 02-Bad Reputation
DR6 0.00 dB -8.41 dB 5:13 03-Cowboy Song
DR5 0.00 dB -6.64 dB 5:03 04-Boys Are Back In Town
DR5 0.00 dB -6.71 dB 5:01 05-Waiting For An Alibi
DR5 0.00 dB -7.04 dB 4:40 06-Are You Ready
DR5 0.00 dB -6.69 dB 6:19 07-Me and the Boys
DR6 0.00 dB -8.72 dB 6:24 08-Baby Drives Me Crazy
----------------------------------------

Number of tracks: 8
Official DR value: DR5

Samplerate: 44100 Hz
Channels: 2
Bits per sample: 16
Bitrate: 944 kbps
Codec: FLAC
================================================================================

CUETools Log


[CUETools log; Date: 15.03.2016 3:20:19; Version: 2.1.5]
[CTDB TOCID: q62VwXSLLPOItMu4tjWeOh9ozc0-] found.
Track | CTDB Status
1 | (1/1) Accurately ripped
2 | (1/1) Accurately ripped
3 | (1/1) Accurately ripped
4 | (1/1) Accurately ripped
5 | (1/1) Accurately ripped
6 | (1/1) Accurately ripped
7 | (1/1) Accurately ripped
8 | (1/1) Accurately ripped
[AccurateRip ID: 000b8eb1-004e6232-65097708] found.
Track [ CRC | V2 ] Status
01 [1793b4a2|a7423fef] (3+2/5) Accurately ripped
02 [1435bc12|ce579b07] (3+2/5) Accurately ripped
03 [8cc5d54c|0b32f513] (3+2/5) Accurately ripped
04 [c515af91|c212b03f] (3+2/5) Accurately ripped
05 53973aa|7d4386c5 (3+2/5) Accurately ripped
06 [e82b9580|4fd2b49a] (2+2/4) Accurately ripped
07 [c7269bc4|8934a99b] (3+2/5) Accurately ripped
08 [f52d5557|4633e588] (3+2/5) Accurately ripped

Track Peak [ CRC32 ] [W/O NULL] [ LOG ]
- 100,0 [77673E4C] [201DABE5] CRC32
01 100,0 [ED2F6F0C] [4915346A]
02 100,0 [988226FB] [0BD81EB0]
03 100,0 [701D16E0] [DE28D046]
04 100,0 [56247374] [35950B3C]
05 100,0 [3133BFC9] [A447D1AC]
06 100,0 [1FE5BB7C] [7C45ACAC]
07 100,0 [650FE338] [744736BE]
08 100,0 [082321E8] [35640EF2]
Download link:

Buy Premium To Support Me & Get Resumable Support & Max Speed:



Links are Interchangeable - No Password - Single Extraction
Direct Download
Comments
Name:*
E-Mail:*
Add Comments:
Enter Code: *