Download Now

Norah Jones - Covers (2012) {Japanese Edition}

Norah Jones - Covers (2012)
EAC Rip | FLAC (Img) + Cue + Log ~ 187 Mb | MP3 CBR320 ~ 88 Mb
Scans (JPG, 600 dpi) ~ 74 Mb | RAR 5% Recovery
Vocal Jazz, Country Pop | Blue Note/EMI #TOCP-71410

Released exclusively to Target stores in America in January 2013 (it had previously shown up in other territories, either as a bonus disc as part of a career-encompassing box set or as a separate release in Japan), Covers rounds up stray covers Norah Jones has released over the years, adding a couple of unreleased cuts in the process. This runs the gamut from classic country covers to Wilco, taking detours for Tom Waits and Horace Silver along the way (the latter is an especially appealing left turn). Nothing here is especially surprising, either in execution or selection, partially because many of these versions date from earlier in her career, appearing as B-sides and bonus tracks for various editions...

Track List:

01. Sleepless Nights [0:04:15.00]
02. I'll Be Your Baby Tonight [0:03:18.15]
03. Jesus, Etc. (Live) [0:03:44.56]
04. Sweet Dreams [0:03:17.63]
05. Cry, Cry, Cry (Live) [0:03:14.20]
06. Picture In A Frame [0:03:34.42]
07. Hands On The Wheel (Live) [0:04:17.52]
08. She (Live) [0:04:30.02]
09. My Blue Heaven [0:02:21.63]
10. Peace [0:03:53.13]

EAC Log


Exact Audio Copy V1.0 beta 3 from 29. August 2011

Отчёт EAC об извлечении, выполненном 14. марта 2016, 14:29

Norah Jones / Covers

Дисковод: PLEXTOR DVDR PX-755A Adapter: 1 ID: 0

Режим чтения : Достоверность
Использование точного потока : Да
Отключение кэша аудио : Да
Использование указателей C2 : Нет

Коррекция смещения при чтении : 30
Способность читать области Lead-in и Lead-out : Нет
Заполнение пропущенных сэмплов тишиной : Да
Удаление блоков с тишиной в начале и конце : Нет
При вычислениях CRC использовались нулевые сэмплы : Да
Интерфейс : Установленный внешний ASPI-интерфейс

Выходной формат : Пользовательский кодировщик
Выбранный битрейт : 1024 kBit/s
Качество : Высокий
Добавление ID3-тега : Нет
Утилита сжатия : C:\Program Files (x86)\Exact Audio Copy\FLAC\FLAC.EXE
Дополнительные параметры : -6 -V -T "ARTIST=%artist%" -T "TITLE=%title%" -T "ALBUM=%albumtitle%" -T "DATE=%year%" -T "TRACKNUMBER=%tracknr%" -T "GENRE=%genre%" -T "COMMENT=%comment%" -T "BAND=%albuminterpret%" -T "ALBUMARTIST=%albuminterpret%" -T "COMPOSER=%composer%" %haslyrics%-tag-from-file=LYRICS="%lyricsfile%"%haslyrics% -T "DISCNUMBER=%cdnumber%" -T "TOTALDISCS=%totalcds%" -T "TOTALTRACKS=%numtracks%" %hascover%-picture="%coverfile%"%hascover% %source% -o %dest%

TOC извлечённого CD

Трек | Старт | Длительность | Начальный сектор | Конечный сектор
-----------------------------------
1 | 0:00.00 | 4:15.00 | 0 | 19124
2 | 4:15.00 | 3:18.15 | 19125 | 33989
3 | 7:33.15 | 3:44.56 | 33990 | 50845
4 | 11:17.71 | 3:17.63 | 50846 | 65683
5 | 14:35.59 | 3:14.20 | 65684 | 80253
6 | 17:50.04 | 3:34.42 | 80254 | 96345
7 | 21:24.46 | 4:17.52 | 96346 | 115672
8 | 25:42.23 | 4:30.02 | 115673 | 135924
9 | 30:12.25 | 2:21.63 | 135925 | 146562
10 | 32:34.13 | 3:53.13 | 146563 | 164050

Характеристики диапазона извлечения и сообщения об ошибках

Выбранный диапазон

Имя файла C:\РАЗДАЧА\Norah Jones - Covers.wav

Пиковый уровень 97.9 %
Скорость извлечения 7.3 X
Качество диапазона 100.0 %
CRC теста 5B21C055
CRC копии 5B21C055
Копирование... OK

Ошибок не произошло


AccurateRip: сводка

Трек 1 : извлечено точно (доверие 75) [DE8CC946] (AR v2)
Трек 2 : извлечено точно (доверие 74) [86DD5072] (AR v2)
Трек 3 : извлечено точно (доверие 75) [87699133] (AR v2)
Трек 4 : извлечено точно (доверие 75) [D25B05D5] (AR v2)
Трек 5 : извлечено точно (доверие 75) [40BF1115] (AR v2)
Трек 6 : извлечено точно (доверие 75) DD4BE16 (AR v2)
Трек 7 : извлечено точно (доверие 75) [20528D70] (AR v2)
Трек 8 : извлечено точно (доверие 75) [D0E59040] (AR v2)
Трек 9 : извлечено точно (доверие 73) [0D77069C] (AR v2)
Трек 10 : извлечено точно (доверие 75) [5B54E3AE] (AR v2)

Все треки извлечены точно

Конец отчёта

==== Контрольная сумма отчёта 420CC84AD1FFC6EE2D8F1936299FF70729FBC912430D435AB421FF5DBB2DD547 ====

DR Log


foobar2000 1.2.6 / Dynamic Range Meter 1.1.1
log date: 2016-03-15 04:38:31

----------------------------------------
Analyzed: Norah Jones / Covers
----------------------------------------

DR Peak RMS Duration Track
----------------------------------------
DR10 -0.58 dB -12.79 dB 4:15 01-Sleepless Nights
DR10 -0.58 dB -12.75 dB 3:18 02-I'll Be Your Baby Tonight
DR9 -0.46 dB -11.29 dB 3:45 03-Jesus, Etc. (Live)
DR10 -0.54 dB -12.35 dB 3:18 04-Sweet Dreams
DR9 -0.56 dB -11.02 dB 3:14 05-Cry, Cry, Cry (Live)
DR13 -0.59 dB -16.69 dB 3:35 06-Picture In A Frame
DR11 -0.57 dB -16.02 dB 4:18 07-Hands On The Wheel (Live)
DR11 -0.57 dB -14.94 dB 4:30 08-She (Live)
DR10 -3.42 dB -16.05 dB 2:22 09-My Blue Heaven
DR14 -0.18 dB -17.47 dB 3:53 10-Peace
----------------------------------------

Number of tracks: 10
Official DR value: DR11

Samplerate: 44100 Hz
Channels: 2
Bits per sample: 16
Bitrate: 683 kbps
Codec: FLAC
================================================================================

CUETools Log


[CUETools log; Date: 15.03.2016 4:38:54; Version: 2.1.5]
[CTDB TOCID: Dv5fLw3sT0Ng294sCc1zu68QYCY-] found.
Track | CTDB Status
1 | (129/129) Accurately ripped
2 | (129/129) Accurately ripped
3 | (129/129) Accurately ripped
4 | (129/129) Accurately ripped
5 | (129/129) Accurately ripped
6 | (129/129) Accurately ripped
7 | (129/129) Accurately ripped
8 | (129/129) Accurately ripped
9 | (128/129) Accurately ripped
10 | (122/129) Accurately ripped, or (2/129) differs in 4397 samples @03:52:69-03:53:01, or (2/129) differs in 4373 samples @03:52:69-03:53:01
[AccurateRip ID: 000ddca9-006e9417-96088b0a] found.
Track [ CRC | V2 ] Status
01 [de0354b7|de8cc946] (06+75/83) Accurately ripped
02 [889e13b9|86dd5072] (06+74/82) Accurately ripped
03 [debe9339|87699133] (06+75/83) Accurately ripped
04 [8bddc4a9|d25b05d5] (06+75/83) Accurately ripped
05 [22ed16db|40bf1115] (06+75/83) Accurately ripped
06 [e830d4cb|bdd4be16] (06+75/83) Accurately ripped
07 [7748e1b4|20528d70] (06+75/83) Accurately ripped
08 [a0762429|d0e59040] (06+75/83) Accurately ripped
09 [00c795d2|0d77069c] (06+73/81) Accurately ripped
10 [72692087|5b54e3ae] (06+75/83) Accurately ripped
Offsetted by -667:
01 [9e6b4a15] (00/83) No match (V2 was not tested)
02 [f3d86cab] (00/82) No match (V2 was not tested)
03 [dfcb0d3b] (00/83) No match (V2 was not tested)
04 [d06f07ac] (00/83) No match (V2 was not tested)
05 [fee99584] (00/83) No match (V2 was not tested)
06 [d6be9ea6] (00/83) No match (V2 was not tested)
07 [f4e6bf83] (00/83) No match (V2 was not tested)
08 [d3f25f30] (00/83) No match (V2 was not tested)
09 [6050b417] (00/81) No match (V2 was not tested)
10 [1c727a88] (00/83) No match (V2 was not tested)

Track Peak [ CRC32 ] [W/O NULL] [ LOG ]
- 97,9 [5B21C055] [3E34C5F8] CRC32
01 93,5 [40A41EB8] [728CFF61]
02 93,5 [A9D1E342] [0ECE8A6F]
03 94,8 4755F58 [858FF38A]
04 93,9 [4C9E783A] [68740F93]
05 93,7 [D1BE6B0C] [DC795514]
06 93,4 [2AC93D03] [2753DCCF]
07 93,6 [4D7B25CA] [D209D771]
08 93,6 [A4ED1767] [05F54388]
09 67,4 [024BA3E4] [7703B546]
10 97,9 [70E95C0A] 3AEC143
Download link:

Buy Premium To Support Me & Get Resumable Support & Max Speed:



Links are Interchangeable - No Password - Single Extraction
Direct Download

Tags: Covers, Japanese

Comments
Name:*
E-Mail:*
Add Comments:
Enter Code: *