Download Now

Zaki Ibrahim - Shö (Iqra In Orange) (EP) (2006)

Zaki Ibrahim - Shö (Iqra In Orange) (EP) (2006)
EAC Rip | FLAC with CUE and log | scans | 258 mb
MP3 CBR 320kbps | RAR | 96 mb
Genre: R&B, soul, reggae, dancehall

Shö (Iqra In Orange) is the 2006 EP by singer Zaki Ibrahim. Born in Canada, she is a South African artist who combines soul and R&B touches with reggae and dancehall leadings. She is also sometimes known simply as Zaki. This EP features a number of tracks of silence before going into three songs that are uncredted, actual titles unable to be detected online.
Zaki Ibrahim - Shö (Iqra In Orange) (EP) (2006)

1. Grow
2. Whatever
3. Connected Mattalike
4. My Joy
5. Daylight
6. Take a Stand
7-16. (silence)
17. Untitled 1
18. Untitled 2
19. Untitled 3


Zaki Ibrahim - Shö (Iqra In Orange) (EP) (2006)


EAC Log


Exact Audio Copy V1.1 from 23. June 2015

EAC extraction logfile from 2. March 2016, 17:10

Zaki Ibrahim / Sho (Iqra In Orange)

Used drive : TEAC DVD-ROM DV-28SW Adapter: 1 ID: 0

Read mode : Secure
Utilize accurate stream : Yes
Defeat audio cache : Yes
Make use of C2 pointers : No

Read offset correction : 6
Overread into Lead-In and Lead-Out : No
Fill up missing offset samples with silence : Yes
Delete leading and trailing silent blocks : No
Null samples used in CRC calculations : Yes
Used interface : Native Win32 interface for Win NT & 2000
Gap handling : Left out

Used output format : Internal WAV Routines
Sample format : 44.100 Hz; 16 Bit; Stereo

TOC of the extracted CD

Track | Start | Length | Start sector | End sector
-----------------------------
1 | 0:00.00 | 3:49.10 | 0 | 17184
2 | 3:49.10 | 5:36.53 | 17185 | 42437
3 | 9:25.63 | 5:02.16 | 42438 | 65103
4 | 14:28.04 | 3:55.22 | 65104 | 82750
5 | 18:23.26 | 4:27.08 | 82751 | 102783
6 | 22:50.34 | 4:48.64 | 102784 | 124447
7 | 27:39.23 | 0:06.02 | 124448 | 124899
8 | 27:45.25 | 0:06.02 | 124900 | 125351
9 | 27:51.27 | 0:06.02 | 125352 | 125803
10 | 27:57.29 | 0:06.02 | 125804 | 126255
11 | 28:03.31 | 0:06.02 | 126256 | 126707
12 | 28:09.33 | 0:06.02 | 126708 | 127159
13 | 28:15.35 | 0:06.02 | 127160 | 127611
14 | 28:21.37 | 0:06.02 | 127612 | 128063
15 | 28:27.39 | 0:06.02 | 128064 | 128515
16 | 28:33.41 | 0:06.02 | 128516 | 128967
17 | 28:39.43 | 3:35.08 | 128968 | 145100
18 | 32:14.51 | 6:30.55 | 145101 | 174405
19 | 38:45.31 | 4:48.65 | 174406 | 196070

Track 1

Filename C:\My Documents\My FLAC\Zaki Ibrahim - Sho (Iqra In Orange) (EP) (2006) [FLAC]\01 - Grow.wav

Pre-gap length 0:00:02.00

Peak level 99.9 %
Extraction speed 2.8 X
Track quality 100.0 %
Test CRC C79DB4FF
Copy CRC C79DB4FF
Track not fully ripped for AccurateRip lookup
Copy OK

Track 2

Filename C:\My Documents\My FLAC\Zaki Ibrahim - Sho (Iqra In Orange) (EP) (2006) [FLAC]\02 - Whatever.wav

Pre-gap length 0:00:02.00

Peak level 99.9 %
Extraction speed 3.3 X
Track quality 100.0 %
Test CRC B31B749E
Copy CRC B31B749E
Track not fully ripped for AccurateRip lookup
Copy OK

Track 3

Filename C:\My Documents\My FLAC\Zaki Ibrahim - Sho (Iqra In Orange) (EP) (2006) [FLAC]\03 - Connected Mattalike.wav

Pre-gap length 0:00:02.00

Peak level 99.9 %
Extraction speed 3.4 X
Track quality 100.0 %
Test CRC 46901956
Copy CRC 46901956
Track not fully ripped for AccurateRip lookup
Copy OK

Track 4

Filename C:\My Documents\My FLAC\Zaki Ibrahim - Sho (Iqra In Orange) (EP) (2006) [FLAC]\04 - My Joy.wav

Pre-gap length 0:00:02.00

Peak level 99.9 %
Extraction speed 3.8 X
Track quality 100.0 %
Test CRC 20B8F375
Copy CRC 20B8F375
Track not fully ripped for AccurateRip lookup
Copy OK

Track 5

Filename C:\My Documents\My FLAC\Zaki Ibrahim - Sho (Iqra In Orange) (EP) (2006) [FLAC]\05 - Daylight.wav

Pre-gap length 0:00:02.00

Peak level 99.9 %
Extraction speed 4.2 X
Track quality 100.0 %
Test CRC FD457DFC
Copy CRC FD457DFC
Track not fully ripped for AccurateRip lookup
Copy OK

Track 6

Filename C:\My Documents\My FLAC\Zaki Ibrahim - Sho (Iqra In Orange) (EP) (2006) [FLAC]\06 - Take A Stand.wav

Pre-gap length 0:00:02.00

Peak level 99.9 %
Extraction speed 3.8 X
Track quality 99.9 %
Test CRC A3BCDE35
Copy CRC A3BCDE35
Track not fully ripped for AccurateRip lookup
Copy OK

Track 7

Filename C:\My Documents\My FLAC\Zaki Ibrahim - Sho (Iqra In Orange) (EP) (2006) [FLAC]\07 - (silence).wav

Pre-gap length 0:00:02.00

Peak level 0.0 %
Extraction speed 0.4 X
Track quality 100.0 %
Test CRC D95AFAF1
Copy CRC D95AFAF1
Track not fully ripped for AccurateRip lookup
Copy OK

Track 8

Filename C:\My Documents\My FLAC\Zaki Ibrahim - Sho (Iqra In Orange) (EP) (2006) [FLAC]\08 - (silence).wav

Pre-gap length 0:00:02.00

Peak level 0.0 %
Extraction speed 0.4 X
Track quality 100.0 %
Test CRC D95AFAF1
Copy CRC D95AFAF1
Track not fully ripped for AccurateRip lookup
Copy OK

Track 9

Filename C:\My Documents\My FLAC\Zaki Ibrahim - Sho (Iqra In Orange) (EP) (2006) [FLAC]\09 - (silence).wav

Pre-gap length 0:00:02.00

Peak level 0.0 %
Extraction speed 0.4 X
Track quality 100.0 %
Test CRC D95AFAF1
Copy CRC D95AFAF1
Track not fully ripped for AccurateRip lookup
Copy OK

Track 10

Filename C:\My Documents\My FLAC\Zaki Ibrahim - Sho (Iqra In Orange) (EP) (2006) [FLAC]\10 - (silence).wav

Pre-gap length 0:00:02.00

Peak level 0.0 %
Extraction speed 0.4 X
Track quality 100.0 %
Test CRC D95AFAF1
Copy CRC D95AFAF1
Track not fully ripped for AccurateRip lookup
Copy OK

Track 11

Filename C:\My Documents\My FLAC\Zaki Ibrahim - Sho (Iqra In Orange) (EP) (2006) [FLAC]\11 - (silence).wav

Pre-gap length 0:00:02.00

Peak level 0.0 %
Extraction speed 0.4 X
Track quality 100.0 %
Test CRC D95AFAF1
Copy CRC D95AFAF1
Track not fully ripped for AccurateRip lookup
Copy OK

Track 12

Filename C:\My Documents\My FLAC\Zaki Ibrahim - Sho (Iqra In Orange) (EP) (2006) [FLAC]\12 - (silence).wav

Pre-gap length 0:00:02.00

Peak level 0.0 %
Extraction speed 0.4 X
Track quality 100.0 %
Test CRC D95AFAF1
Copy CRC D95AFAF1
Track not fully ripped for AccurateRip lookup
Copy OK

Track 13

Filename C:\My Documents\My FLAC\Zaki Ibrahim - Sho (Iqra In Orange) (EP) (2006) [FLAC]\13 - (silence).wav

Pre-gap length 0:00:02.00

Peak level 0.0 %
Extraction speed 0.4 X
Track quality 100.0 %
Test CRC D95AFAF1
Copy CRC D95AFAF1
Track not fully ripped for AccurateRip lookup
Copy OK

Track 14

Filename C:\My Documents\My FLAC\Zaki Ibrahim - Sho (Iqra In Orange) (EP) (2006) [FLAC]\14 - (silence).wav

Pre-gap length 0:00:02.00

Peak level 0.0 %
Extraction speed 0.4 X
Track quality 100.0 %
Test CRC D95AFAF1
Copy CRC D95AFAF1
Track not fully ripped for AccurateRip lookup
Copy OK

Track 15

Filename C:\My Documents\My FLAC\Zaki Ibrahim - Sho (Iqra In Orange) (EP) (2006) [FLAC]\15 - (silence).wav

Pre-gap length 0:00:02.00

Peak level 0.0 %
Extraction speed 0.4 X
Track quality 100.0 %
Test CRC D95AFAF1
Copy CRC D95AFAF1
Track not fully ripped for AccurateRip lookup
Copy OK

Track 16

Filename C:\My Documents\My FLAC\Zaki Ibrahim - Sho (Iqra In Orange) (EP) (2006) [FLAC]\16 - (silence).wav

Pre-gap length 0:00:02.00

Peak level 0.0 %
Extraction speed 0.4 X
Track quality 100.0 %
Test CRC D95AFAF1
Copy CRC D95AFAF1
Track not fully ripped for AccurateRip lookup
Copy OK

Track 17

Filename C:\My Documents\My FLAC\Zaki Ibrahim - Sho (Iqra In Orange) (EP) (2006) [FLAC]\17 - Untitled 1.wav

Pre-gap length 0:00:02.00

Peak level 99.9 %
Extraction speed 3.7 X
Track quality 99.9 %
Test CRC 578C3F73
Copy CRC 578C3F73
Track not fully ripped for AccurateRip lookup
Copy OK

Track 18

Filename C:\My Documents\My FLAC\Zaki Ibrahim - Sho (Iqra In Orange) (EP) (2006) [FLAC]\18 - Untitled 2.wav

Pre-gap length 0:00:02.00

Peak level 99.9 %
Extraction speed 4.6 X
Track quality 99.9 %
Test CRC 82845D7C
Copy CRC 82845D7C
Track not fully ripped for AccurateRip lookup
Copy OK

Track 19

Filename C:\My Documents\My FLAC\Zaki Ibrahim - Sho (Iqra In Orange) (EP) (2006) [FLAC]\19 - Untitled 3.wav

Pre-gap length 0:00:02.00

Peak level 99.9 %
Extraction speed 4.3 X
Track quality 99.9 %
Test CRC 50D31587
Copy CRC 50D31587
Track not present in AccurateRip database
Copy OK

1 track(s) not present in the AccurateRip database
18 track(s) not fully ripped for AccurateRip lookup

No tracks could be verified as accurate

No errors occurred

End of status report

==== Log checksum 44008FC52298161A25287E4E7B3910CB9F874BC56C482B964883083B3030DDBE ====
Download link:

Buy Premium To Support Me & Get Resumable Support & Max Speed:



Links are Interchangeable - No Password - Single Extraction
Direct Download

Tags: Ibrahim, Orange

Comments
Name:*
E-Mail:*
Add Comments:
Enter Code: *