Download Now

Terry Ellis - Southern Gal (1995) {En Vogue}

Terry Ellis - Southern Gal (1995)
EAC Rip | FLAC with CUE and log | scans | 336 mb
MP3 CBR 320kbps | RAR | 120 mb
Genre: R&B, soul

Southern Gal is the 1995 debut solo album by En Vogue vocalist Terry Ellis. The album featured the hits "Where Ever You Are" and "What Did I Do To You?" This was her only solo album.
Terry Ellis - Southern Gal (1995) {En Vogue}

1. She's a Lady
2. It Ain't Over
3. Where Ever You Are
4. I Don't Want to Wait Till Tomorrow
5. What Did I Do to You?
6. Slow Dance
7. I Don't Mind
8. You Make Me High
9. Back Down Memory Lane
10. It's You That I Need (Bonus Track)
11. Sista Sista
12. Southern Gal Interlude


Terry Ellis - Southern Gal (1995) {En Vogue}


EAC Log


Exact Audio Copy V1.1 from 23. June 2015

EAC extraction logfile from 12. March 2016, 8:31

Terry Ellis / Southern Gal

Used drive : TEAC DVD-ROM DV-28SW Adapter: 1 ID: 0

Read mode : Secure
Utilize accurate stream : Yes
Defeat audio cache : Yes
Make use of C2 pointers : No

Read offset correction : 6
Overread into Lead-In and Lead-Out : No
Fill up missing offset samples with silence : Yes
Delete leading and trailing silent blocks : No
Null samples used in CRC calculations : Yes
Used interface : Native Win32 interface for Win NT & 2000
Gap handling : Left out

Used output format : Internal WAV Routines
Sample format : 44.100 Hz; 16 Bit; Stereo

TOC of the extracted CD

Track | Start | Length | Start sector | End sector
-----------------------------
1 | 0:00.32 | 4:03.40 | 32 | 18296
2 | 4:03.72 | 5:09.10 | 18297 | 41481
3 | 9:13.07 | 4:59.10 | 41482 | 63916
4 | 14:12.17 | 4:00.70 | 63917 | 81986
5 | 18:13.12 | 4:19.25 | 81987 | 101436
6 | 22:32.37 | 4:21.33 | 101437 | 121044
7 | 26:53.70 | 5:18.07 | 121045 | 144901
8 | 32:12.02 | 4:40.23 | 144902 | 165924
9 | 36:52.25 | 3:59.60 | 165925 | 183909
10 | 40:52.10 | 4:18.65 | 183910 | 203324
11 | 45:11.00 | 4:42.40 | 203325 | 224514
12 | 49:53.40 | 1:19.22 | 224515 | 230461

Track 1

Filename C:\My Documents\My FLAC\Terry Ellis - Southern Gal (1995) [FLAC]\01 - She's A Lady.wav

Pre-gap length 0:00:02.32

Peak level 97.7 %
Extraction speed 2.8 X
Track quality 100.0 %
Test CRC 8348CAA7
Copy CRC 8348CAA7
Track not fully ripped for AccurateRip lookup
Copy OK

Track 2

Filename C:\My Documents\My FLAC\Terry Ellis - Southern Gal (1995) [FLAC]\02 - It Ain't Over.wav

Pre-gap length 0:00:00.02

Peak level 97.7 %
Extraction speed 2.8 X
Track quality 99.9 %
Test CRC C4623E59
Copy CRC C4623E59
Track not fully ripped for AccurateRip lookup
Copy OK

Track 3

Filename C:\My Documents\My FLAC\Terry Ellis - Southern Gal (1995) [FLAC]\03 - Where Ever You Are.wav

Pre-gap length 0:00:00.02

Peak level 97.7 %
Extraction speed 3.1 X
Track quality 99.9 %
Test CRC 7CD00CAC
Copy CRC 7CD00CAC
Track not fully ripped for AccurateRip lookup
Copy OK

Track 4

Filename C:\My Documents\My FLAC\Terry Ellis - Southern Gal (1995) [FLAC]\04 - I Don't Want To Wait Till Tomorrow.wav

Pre-gap length 0:00:00.02

Peak level 97.7 %
Extraction speed 3.7 X
Track quality 100.0 %
Test CRC F21A9ACA
Copy CRC F21A9ACA
Track not fully ripped for AccurateRip lookup
Copy OK

Track 5

Filename C:\My Documents\My FLAC\Terry Ellis - Southern Gal (1995) [FLAC]\05 - What Did I Do To You.wav

Pre-gap length 0:00:00.02

Peak level 97.7 %
Extraction speed 3.4 X
Track quality 99.9 %
Test CRC B47B6A49
Copy CRC B47B6A49
Track not fully ripped for AccurateRip lookup
Copy OK

Track 6

Filename C:\My Documents\My FLAC\Terry Ellis - Southern Gal (1995) [FLAC]\06 - Slow Dance.wav

Pre-gap length 0:00:00.02

Peak level 97.7 %
Extraction speed 4.3 X
Track quality 100.0 %
Test CRC 1C31208E
Copy CRC 1C31208E
Track not fully ripped for AccurateRip lookup
Copy OK

Track 7

Filename C:\My Documents\My FLAC\Terry Ellis - Southern Gal (1995) [FLAC]\07 - I Don't Mind.wav

Pre-gap length 0:00:00.03

Peak level 97.7 %
Extraction speed 3.4 X
Track quality 99.9 %
Test CRC 99356C83
Copy CRC 99356C83
Track not fully ripped for AccurateRip lookup
Copy OK

Track 8

Filename C:\My Documents\My FLAC\Terry Ellis - Southern Gal (1995) [FLAC]\08 - You Make Me High.wav

Pre-gap length 0:00:00.02

Peak level 97.7 %
Extraction speed 4.5 X
Track quality 100.0 %
Test CRC 98094A85
Copy CRC 98094A85
Track not fully ripped for AccurateRip lookup
Copy OK

Track 9

Filename C:\My Documents\My FLAC\Terry Ellis - Southern Gal (1995) [FLAC]\09 - Back Down Memory Lane.wav

Pre-gap length 0:00:00.03

Peak level 97.7 %
Extraction speed 4.0 X
Track quality 100.0 %
Test CRC 0857A58F
Copy CRC 0857A58F
Track not fully ripped for AccurateRip lookup
Copy OK

Track 10

Filename C:\My Documents\My FLAC\Terry Ellis - Southern Gal (1995) [FLAC]\10 - It's You That I Need (Bonus Track).wav

Pre-gap length 0:00:00.03

Peak level 97.7 %
Extraction speed 5.1 X
Track quality 100.0 %
Test CRC A2672AC6
Copy CRC A2672AC6
Track not fully ripped for AccurateRip lookup
Copy OK

Track 11

Filename C:\My Documents\My FLAC\Terry Ellis - Southern Gal (1995) [FLAC]\11 - Sista Sista.wav

Pre-gap length 0:00:00.03

Peak level 97.7 %
Extraction speed 4.5 X
Track quality 99.9 %
Test CRC 45F95215
Copy CRC 45F95215
Track not fully ripped for AccurateRip lookup
Copy OK

Track 12

Filename C:\My Documents\My FLAC\Terry Ellis - Southern Gal (1995) [FLAC]\12 - Southern Gal (Interlude).wav

Pre-gap length 0:00:00.03

Peak level 97.7 %
Extraction speed 4.1 X
Track quality 100.0 %
Test CRC B849E8A0
Copy CRC B849E8A0
Accurately ripped (confidence 2) [DF199B39] (AR v2)
Copy OK

1 track(s) accurately ripped
11 track(s) not fully ripped for AccurateRip lookup

Some tracks could not be verified as accurate

No errors occurred

End of status report

==== Log checksum B8AAD4BC1FBCBEAD5895B10F14D0B635B3CD0B927E097433F6B3E80AA52FD641 ====
Download link:

Buy Premium To Support Me & Get Resumable Support & Max Speed:



Links are Interchangeable - No Password - Single Extraction
Direct Download

Tags: Southern

Comments
Name:*
E-Mail:*
Add Comments:
Enter Code: *