Download Now

Eternal Of Sweden - Chapter 1 (2012)

Eternal Of Sweden - Chapter 1 (2012)
EAC Rip | FLAC (Img) + Cue + Log ~ 409 Mb | MP3 CBR320 ~ 123 Mb
Scans (JPG, 600 dpi) ~ 75 Mb | RAR 5% Recovery
Melodic Hard Rock/Heavy Metal | HGM #HGM013

Eternal are from Sweden and "Chapter 1" was produced by no one else than Peter Tägtgren (Dimmu Borgir, Celtic Frost, Destruction, Dark Funeral, Children of Bodom, Cradle of Filth, Sabaton, Amon Amarth). He proves to be a top notch producer not only for extreme metal bands. This is an awesome Melodic Metal Debüt from a band releasing a debut album! The two brothers Gärds, Christer, who sounds like a mix of Graham Bonnet and Joey Tempest, and the guitar wiz Bosse delivers power, energy, melody, headbanger guarantee - a great debut!

The members of Eternal began to play melodic hardrock in the early 80s. Some of them together and some of them in other bands. In the 90s they did some recording projects together and also played together in some coverbands. After a lot of years in coverbands they got tired of that, and decided to play and make their own style of hardrock again. In the spring of 2007 they got together to start up their new band Eternal.

Finally, the band Eternal (of Sweden) has released their full-length album which is titled "Chapter I". Their debut EP, "Start Of A New Era" was a nice sample of a tight band with some very good songs.

To give you a picture of Eternal's music, I would describe it as a melodic hard/metal band in the vain of Pretty Maids, Rainbow and Y. Malmsteen but, also, they combine some newer melodic metal elements. They have, also, performed in some gigs in Sweden (Rockweekend, Rockstad:Falun and Sweden Rock). In 2012, more festival shows and gigs are waiting for these guys. "Chapter I" is released by the label HGM and distributed by Sound Polution. Peter Taegtgren is responsible for the production here at the Abyss studios.

The album starts perfectly with the "You Can't Break Us". A heavy and melodic appetaizer of what's coming up next! A tight sound, powerfull vocals and some blistering guitars in a perfect starter! "Human" is a heavier tune but has nothing to be envy about the opening song. For sure, another great track! "Virus" is a good melodic heavy track with the pedal to the metal! A good track but nothin' really breathtakin;. "Start Of A New Era" is solid and features a 'fat' guitar sound while "Scream Higher" is one of my favorite from this album. It has very good arrangements, a catchy chorus line and passionate vocal performances! Well done guys!! "Heroes" is a killer track and "Dead Or Alive" is overall good! From the last four songs of "Chapter I" the standout tune is certenly the "Stay The Night".

Overall, this is an extremely interesting release. It includes some brilliant pieces of melodic hard/metal stuff that are played with passion. I can tell you that these guys have so much talent and I'm sure that the future looks bright for Eternal.
01. You Can't Break Us [05:34]
02. Human [04:16]
03. Virus [04:45]
04. Start Of A New Era [04:54]
05. Scream Higher [03:59]
06. Heroes [05:17]
07. Dead Or Alive [04:33]
08. Ray Of Light [04:03]
09. Stay The Night [04:34]
10. Cross The Line [04:26]
11. The Thing [05:07]

Personnel:

Anders "Slabben" Sandström - Bass
Pelle Hindén - Drums
Bosse Gärds - Guitars
Pontus Lekaregård - Keyboards
Christer Gärds - Vocals

EAC Log


Exact Audio Copy V1.0 beta 3 from 29. August 2011

EAC extraction logfile from 4. August 2012, 9:27

Eternal Of Sweden / Chapter 1

Used drive : SlimtypeDVD A DS8A5SH Adapter: 0 ID: 1

Read mode : Secure
Utilize accurate stream : Yes
Defeat audio cache : Yes
Make use of C2 pointers : No

Read offset correction : 6
Overread into Lead-In and Lead-Out : No
Fill up missing offset samples with silence : Yes
Delete leading and trailing silent blocks : No
Null samples used in CRC calculations : Yes
Used interface : Native Win32 interface for Win NT & 2000

Used output format : User Defined Encoder
Selected bitrate : 320 kBit/s
Quality : High
Add ID3 tag : No
Command line compressor : C:\Program Files (x86)\Exact Audio Copy\Flac\flac.exe
Additional command line options : -V -8 -T "Date=%year%" -T "Genre=%genre%" %source%

TOC of the extracted CD

Track | Start | Length | Start sector | End sector
-----------------------------
1 | 0:00.00 | 5:33.06 | 0 | 24980
2 | 5:33.06 | 4:15.62 | 24981 | 44167
3 | 9:48.68 | 4:44.19 | 44168 | 65486
4 | 14:33.12 | 4:53.70 | 65487 | 87531
5 | 19:27.07 | 3:58.25 | 87532 | 105406
6 | 23:25.32 | 5:16.71 | 105407 | 129177
7 | 28:42.28 | 4:32.04 | 129178 | 149581
8 | 33:14.32 | 4:02.49 | 149582 | 167780
9 | 37:17.06 | 4:33.38 | 167781 | 188293
10 | 41:50.44 | 4:25.02 | 188294 | 208170
11 | 46:15.46 | 5:06.11 | 208171 | 231131

Range status and errors

Selected range

Filename D:\My Music\Eternal Of Sweden - 2012 Chapter 1\Eternal Of Sweden - Chapter 1.wav

Peak level 98.4 %
Extraction speed 4.4 X
Range quality 100.0 %
Test CRC 4CEAE969
Copy CRC 4CEAE969
Copy OK

No errors occurred


AccurateRip summary

Track 1 accurately ripped (confidence 1) [C935C109] (AR v2)
Track 2 accurately ripped (confidence 1) [F891B584] (AR v2)
Track 3 accurately ripped (confidence 1) [1EB598A8] (AR v2)
Track 4 accurately ripped (confidence 1) [3222FAD4] (AR v2)
Track 5 accurately ripped (confidence 1) [04BF565D] (AR v2)
Track 6 accurately ripped (confidence 1) [AC2D2B63] (AR v2)
Track 7 accurately ripped (confidence 1) [769154AB] (AR v2)
Track 8 accurately ripped (confidence 1) [6D10034E] (AR v2)
Track 9 accurately ripped (confidence 1) D26002A (AR v2)
Track 10 accurately ripped (confidence 1) [51DFFBBF] (AR v2)
Track 11 accurately ripped (confidence 1) [EA108FB2] (AR v2)

All tracks accurately ripped

End of status report

==== Log checksum 0A8AD8DAC1B9F5C186A6E5C07394561A233FB459DB143D133128A0A7D04D0418 ====

DR Log


foobar2000 1.2.6 / Dynamic Range Meter 1.1.1
log date: 2016-03-11 00:21:23

----------------------------------------
Analyzed: Eternal Of Sweden / Chapter 1
----------------------------------------

DR Peak RMS Duration Track
----------------------------------------
DR6 -0.14 dB -8.22 dB 5:33 01-You Can't Break Us
DR6 -0.14 dB -7.47 dB 4:16 02-Human
DR5 -0.14 dB -6.65 dB 4:44 03-Virus
DR6 -0.14 dB -7.64 dB 4:54 04-Start Of A New Era
DR5 -0.14 dB -6.79 dB 3:58 05-Scream Higher
DR6 -0.14 dB -6.98 dB 5:17 06-Heroes
DR5 -0.14 dB -6.93 dB 4:32 07-Dead Or Alive
DR6 -0.14 dB -6.52 dB 4:03 08-Ray Of Light
DR5 -0.14 dB -6.47 dB 4:34 09-Stay The Night
DR5 -0.14 dB -6.95 dB 4:25 10-Cross The Line
DR5 -0.14 dB -7.33 dB 5:06 11-The Thing
----------------------------------------

Number of tracks: 11
Official DR value: DR6

Samplerate: 44100 Hz
Channels: 2
Bits per sample: 16
Bitrate: 1060 kbps
Codec: FLAC
================================================================================

CUETools Log


[CUETools log; Date: 11.03.2016 0:21:23; Version: 2.1.5]
[CTDB TOCID: aYtlnuLiwPEqQWVVyO6t1N7.zr0-] disk not present in database.
[AccurateRip ID: 00156371-00b833ad-a40c090b] found.
Track [ CRC | V2 ] Status
01 937a846|c935c109 (0+1/3) Accurately ripped
02 [618a3d9b|f891b584] (0+1/2) Accurately ripped
03 [6383d486|1eb598a8] (0+1/2) Accurately ripped
04 [de3010cb|3222fad4] (0+1/2) Accurately ripped
05 eaefd1c|04bf565d (0+1/2) Accurately ripped
06 [feaa3cc4|ac2d2b63] (0+1/2) Accurately ripped
07 [1b38ea4d|769154ab] (0+1/2) Accurately ripped
08 23c2a5d|6d10034e (0+1/2) Accurately ripped
09 [c56fda17|bd26002a] (0+1/2) Accurately ripped
10 [61e23d5b|51dffbbf] (0+1/2) Accurately ripped
11 2c05c54|ea108fb2 (0+1/2) Accurately ripped

Track Peak [ CRC32 ] [W/O NULL] [ LOG ]
- 98,4 [4CEAE969] C85969A CRC32
01 98,4 [900A47CB] [83FD4B4D]
02 98,4 [7209306C] [DF8C4E03]
03 98,4 [4962050A] [E148880E]
04 98,4 [4343707F] [90172DCA]
05 98,4 [AC85A22A] [497ED270]
06 98,4 [2DF29E09] [08E9DC21]
07 98,4 89D8B38 [C49C79EB]
08 98,4 [A9CC3D9D] 4513F59
09 98,4 [C651BA30] [92A3C61F]
10 98,4 [F8F9E94E] [9B593303]
11 98,4 [C3438D65] [427F0EF1]
Download link:

Buy Premium To Support Me & Get Resumable Support & Max Speed:



Links are Interchangeable - No Password - Single Extraction
Direct Download

Tags: Eternal, Sweden, Chapter

Comments
Name:*
E-Mail:*
Add Comments:
Enter Code: *