Download Now

Creedence Clearwater Revival - Cosmo's Factory (1970) {1993, DCC 24k Gold CD}

Creedence Clearwater Revival - Cosmo's Factory (1970)
EAC Rip | FLAC (Img) + Cue + Log ~ 296 Mb | MP3 CBR320 ~ 116 Mb
Scans Included (JPG, 300 dpi) | RAR 5% Recovery
Rock | DCC Compact Classics Inc. #GZS-1031

Cosmo's Factory is the fifth studio album by American rock band Creedence Clearwater Revival, released by Fantasy Records in 1970. The name of the album comes from the warehouse in Berkeley where the band rehearsed early in their career. It was dubbed "The Factory" by drummer Doug "Cosmo" Clifford, because bandleader John Fogerty made them practice there almost every day. The album was certified Gold by the Recording Industry Association of America on December 16, 1970. Almost twenty years later, on December 13, 1990, it received a certification of four times platinum with sales of over four million copies.

Track List:

01. Ramble Tamble [07:14]
02. Before You Accuse Me [03:30]
03. Travelin' Band [02:11]
04. Ooby Dooby [02:11]
05. Lookin' Out My Back Door [02:36]
06. Run Through the Jungle [03:12]
07. Up Around the Bend [02:45]
08. My Baby Left Me [02:22]
09. Who'll Stop the Rain [02:32]
10. I Heard It Through the Grapevine [11:08]
11. Long As I Can See the Light [03:36]

EAC Log


Exact Audio Copy V1.0 beta 4 from 7. December 2014

Отчёт EAC об извлечении, выполненном 5. марта 2016, 16:13

Creedence Clearwater Revival / Cosmo's Factory (DCC GZS-1031)

Дисковод: HL-DT-STDVD-RAM GSA-H22N Adapter: 1 ID: 0

Режим чтения : Достоверность
Использование точного потока : Да
Отключение кэша аудио : Нет
Использование указателей C2 : Нет

Коррекция смещения при чтении : 102
Способность читать области Lead-in и Lead-out : Нет
Заполнение пропущенных сэмплов тишиной : Да
Удаление блоков с тишиной в начале и конце : Нет
При вычислениях CRC использовались нулевые сэмплы : Да
Интерфейс : Встроенный Win32-интерфейс для Win NT/2000

Выходной формат : Внутренние WAV-операции
Формат сэмплов : 44.100 Гц; 16 бит; стерео

TOC извлечённого CD

Трек | Старт | Длительность | Начальный сектор | Конечный сектор
-----------------------------------
1 | 0:00.00 | 7:13.52 | 0 | 32526
2 | 7:13.52 | 3:29.05 | 32527 | 48206
3 | 10:42.57 | 2:10.03 | 48207 | 57959
4 | 12:52.60 | 2:10.02 | 57960 | 67711
5 | 15:02.62 | 2:35.68 | 67712 | 79404
6 | 17:38.55 | 3:11.42 | 79405 | 93771
7 | 20:50.22 | 2:44.40 | 93772 | 106111
8 | 23:34.62 | 2:21.45 | 106112 | 116731
9 | 25:56.32 | 2:31.38 | 116732 | 128094
10 | 28:27.70 | 11:07.70 | 128095 | 178189
11 | 39:35.65 | 3:35.35 | 178190 | 194349

Характеристики диапазона извлечения и сообщения об ошибках

Выбранный диапазон

Имя файла D:\Музыка\Готовое для заливки\Creedence Clearwater Revival - Cosmo's (1969 SHoff.) APE\Creedence Clearwater Revival - Cosmo's Factory (DCC GZS-1031).wav

Пиковый уровень 100.0 %
Скорость извлечения 3.7 X
Качество диапазона 99.9 %
CRC копии 77A7F468
Копирование... OK

Ошибок не произошло


AccurateRip: сводка

Трек 1 : извлечено точно (доверие 26) [84945ACF] (AR v2)
Трек 2 : извлечено точно (доверие 26) [40E0E7C2] (AR v2)
Трек 3 : извлечено точно (доверие 25) [3ACD0CA0] (AR v2)
Трек 4 : извлечено точно (доверие 26) [8D5C1C72] (AR v2)
Трек 5 : извлечено точно (доверие 25) [58C40481] (AR v2)
Трек 6 : извлечено точно (доверие 26) [2346D86D] (AR v2)
Трек 7 : извлечено точно (доверие 26) [C03A8551] (AR v2)
Трек 8 : извлечено точно (доверие 26) [4B7E9292] (AR v2)
Трек 9 : извлечено точно (доверие 25) [FEB89A30] (AR v2)
Трек 10 : извлечено точно (доверие 26) [20F28D10] (AR v2)
Трек 11 : извлечено точно (доверие 26) [791C001B] (AR v2)

Все треки извлечены точно

Конец отчёта

==== Контрольная сумма отчёта FBF123FAD487624BB0D24C9054281678F18CB9440AD68E53863E0F216AA75125 ====

DR Log


foobar2000 1.2.6 / Dynamic Range Meter 1.1.1
log date: 2016-03-10 12:37:17

----------------------------------------
Analyzed: Creedence Clearwater Revival / Cosmo's Factory (DCC GZS-1031)
----------------------------------------

DR Peak RMS Duration Track
----------------------------------------
DR12 0.00 dB -13.51 dB 7:14 01-Ramble Tamble
DR14 0.00 dB -15.32 dB 3:29 02-Before You Accuse Me
DR13 0.00 dB -14.33 dB 2:10 03-Travelin' Band
DR12 0.00 dB -14.40 dB 2:10 04-Ooby Dooby
DR12 0.00 dB -14.39 dB 2:36 05-Lookin' Out My Back Door
DR12 -0.23 dB -14.67 dB 3:12 06-Run Through the Jungle
DR11 -2.53 dB -15.44 dB 2:45 07-Up Around the Bend
DR12 -0.23 dB -14.73 dB 2:22 08-My Baby Left Me
DR12 -1.07 dB -16.11 dB 2:32 09-Who'll Stop the Rain
DR13 0.00 dB -14.75 dB 11:08 10-I Heard It Through the Grapevine
DR13 -1.72 dB -17.51 dB 3:35 11-Long As I Can See the Light
----------------------------------------

Number of tracks: 11
Official DR value: DR12

Samplerate: 44100 Hz
Channels: 2
Bits per sample: 16
Bitrate: 873 kbps
Codec: FLAC
================================================================================

CUETools Log


[CUETools log; Date: 10.03.2016 12:37:18; Version: 2.1.5]
[CTDB TOCID: M6vKutMK9gOsX0AzI90UxlWU4fI-] found.
Track | CTDB Status
1 | (18/18) Accurately ripped
2 | (18/18) Accurately ripped
3 | (18/18) Accurately ripped
4 | (18/18) Accurately ripped
5 | (18/18) Accurately ripped
6 | (18/18) Accurately ripped
7 | (18/18) Accurately ripped
8 | (18/18) Accurately ripped
9 | (18/18) Accurately ripped
10 | (18/18) Accurately ripped
11 | (18/18) Accurately ripped
[AccurateRip ID: 0010d4d6-008f36a2-8f0a1f0b] found.
Track [ CRC | V2 ] Status
01 [05edcf20|84945acf] (27+26/53) Accurately ripped
02 [2e845e19|40e0e7c2] (27+26/53) Accurately ripped
03 [26b26ac1|3acd0ca0] (28+25/53) Accurately ripped
04 [e936378f|8d5c1c72] (26+26/52) Accurately ripped
05 [9c47806c|58c40481] (27+25/52) Accurately ripped
06 [859ed864|2346d86d] (27+26/53) Accurately ripped
07 [81bfc5a5|c03a8551] (28+26/54) Accurately ripped
08 [c47824be|4b7e9292] (27+26/53) Accurately ripped
09 45f9d0a|feb89a30 (28+25/53) Accurately ripped
10 [6fd8300d|20f28d10] (28+26/54) Accurately ripped
11 [22733209|791c001b] (28+26/54) Accurately ripped

Track Peak [ CRC32 ] [W/O NULL] [ LOG ]
- 100,0 [77A7F468] [0B7E18EA] CRC32
01 100,0 [9981FEB5] [A6272009]
02 100,0 [FA3926FB] [1993492C]
03 99,9 [FC26930A] [6733F15A]
04 99,9 [DCAFBB2C] [E1394545]
05 100,0 [D89BC1A0] [2BF061EE]
06 97,3 [2901E950] [4FB067F5]
07 74,7 [EE566EE5] [19B96C90]
08 97,4 [6AF6EDC4] [2AB8DB76]
09 88,3 [CD350149] [CE84724F]
10 100,0 [F1DBC17E] [AD5318FE]
11 82,0 [161BFDF9] [41613826]
Download link:

Buy Premium To Support Me & Get Resumable Support & Max Speed:



Links are Interchangeable - No Password - Single Extraction
Direct Download

Tags: Creedence, Clearwater, Revival, Factory

Comments
Name:*
E-Mail:*
Add Comments:
Enter Code: *