Download Now

HorrorPops - Bring It On! (2005)

HorrorPops - Bring It On! (2005)
EAC Rip | FLAC (Img) + Cue + Log ~ 338 Mb | MP3 CBR320 ~ 119 Mb
Scans Included (JPG, 400 dpi) | RAR 5% Recovery
Psychobilly, Punk Rock, Rockabilly | Hellcat Records #80473-2

Psychobilly. By its very name it's a kick in the pants, an emphatic wallop that metes out harmony between the greasers and punks by the thrum of standup bass. HorrorPops made a real impression with Hell Yeah, their Epitaph debut, and 2005's Bring It On! also delivers soundly. The band never gets carried away with establishing a rabid, rapid pace, or the genre's obsession with grabby ghouls and pools of blood. That stuff's in there, but it's cut with Patricia Day's endearing "girl group gone a little bad" lead vocals and dynamic songwriting that finds the most effective way to combine rockabilly thump with punk swagger, instead of the most obvious one. And HorrorPops aren't two-dimensional...

Track List:

01. Freaks In Uniforms [02:46]
02. Hit 'N' Run [03:35]
03. Bring It On! [02:18]
04. It's Been So Long [03:28]
05. Undefeated [02:53]
06. You vs. Me [04:01]
07. Crawl Straight Home [02:51]
08. Trapped [03:20]
09. Walk Like A Zombie [04:08]
10. Where You Can't Follow [03:06]
11. Caught In A Blond [02:59]
12. S.O.B. [03:26]
13. Who's Leading You Now [02:51]

EAC Log


Exact Audio Copy V1.0 beta 3 from 29. August 2011

EAC extraction logfile from 5. March 2016, 18:20

Horrorpops / Bring It On!

Used drive : PIONEER BD-RW BDR-TD03 Adapter: 0 ID: 1

Read mode : Secure
Utilize accurate stream : Yes
Defeat audio cache : Yes
Make use of C2 pointers : No

Read offset correction : 667
Overread into Lead-In and Lead-Out : No
Fill up missing offset samples with silence : Yes
Delete leading and trailing silent blocks : No
Null samples used in CRC calculations : Yes
Used interface : Native Win32 interface for Win NT & 2000

Used output format : User Defined Encoder
Selected bitrate : 768 kBit/s
Quality : High
Add ID3 tag : No
Command line compressor : C:\Program Files (x86)\Exact Audio Copy\FLAC\FLAC.EXE
Additional command line options : -6 -V -T "ARTIST=%artist%" -T "TITLE=%title%" -T "ALBUM=%albumtitle%" -T "DATE=%year%" -T "TRACKNUMBER=%tracknr%" -T "GENRE=%genre%" -T "COMMENT=%comment%" -T "BAND=%albuminterpret%" -T "ALBUMARTIST=%albuminterpret%" -T "COMPOSER=%composer%" %haslyrics%-tag-from-file=LYRICS="%lyricsfile%"%haslyrics% -T "DISCNUMBER=%cdnumber%" -T "TOTALDISCS=%totalcds%" -T "TOTALTRACKS=%numtracks%" %hascover%-picture="%coverfile%"%hascover% %source% -o %dest%

TOC of the extracted CD

Track | Start | Length | Start sector | End sector
-----------------------------
1 | 0:00.00 | 2:45.05 | 0 | 12379
2 | 2:45.05 | 3:34.23 | 12380 | 28452
3 | 6:19.28 | 2:17.41 | 28453 | 38768
4 | 8:36.69 | 3:27.57 | 38769 | 54350
5 | 12:04.51 | 2:52.15 | 54351 | 67265
6 | 14:56.66 | 4:00.67 | 67266 | 85332
7 | 18:57.58 | 2:50.39 | 85333 | 98121
8 | 21:48.22 | 3:19.43 | 98122 | 113089
9 | 25:07.65 | 4:07.04 | 113090 | 131618
10 | 29:14.69 | 3:05.06 | 131619 | 145499
11 | 32:20.00 | 2:58.70 | 145500 | 158919
12 | 35:18.70 | 3:25.71 | 158920 | 174365
13 | 38:44.66 | 2:50.18 | 174366 | 187133

Range status and errors

Selected range

Filename C:\Users\Deris\Desktop\...\HorPop\Horrorpops - Bring It On!.wav

Peak level 97.2 %
Extraction speed 4.4 X
Range quality 100.0 %
Test CRC 60316469
Copy CRC 60316469
Copy OK

No errors occurred


AccurateRip summary

Track 1 accurately ripped (confidence 5) [F7B44C56] (AR v2)
Track 2 accurately ripped (confidence 5) [E3327662] (AR v2)
Track 3 accurately ripped (confidence 5) [74A2F30E] (AR v2)
Track 4 accurately ripped (confidence 5) [749E8BF0] (AR v2)
Track 5 accurately ripped (confidence 5) [719D1C25] (AR v2)
Track 6 accurately ripped (confidence 5) [C9EFE606] (AR v2)
Track 7 accurately ripped (confidence 5) AC5EB40 (AR v2)
Track 8 accurately ripped (confidence 5) [6716F4A0] (AR v2)
Track 9 accurately ripped (confidence 5) [C316CDBF] (AR v2)
Track 10 accurately ripped (confidence 5) [8C243B68] (AR v2)
Track 11 accurately ripped (confidence 5) [E9A71945] (AR v2)
Track 12 accurately ripped (confidence 5) [516E1145] (AR v2)
Track 13 accurately ripped (confidence 5) [E3377CF7] (AR v2)

All tracks accurately ripped

End of status report

-- CUETools DB Plugin V2.1.3

[CTDB TOCID: 9PxHb88y9DATgrPZyEA8g88A.NA-] found, Submit result: 9PxHb88y9DATgrPZyEA8g88A.NA- has been confirmed
[c6ed933e] (9/9) Accurately ripped

==== Log checksum CD58D744CAD03EFD951ED77B07416BCF15A63BF2298B162E5B48C00496EDC645 ====

DR Log


foobar2000 1.2.6 / Dynamic Range Meter 1.1.1
log date: 2016-03-09 14:45:18

----------------------------------------
Analyzed: Horrorpops / Bring It On!
----------------------------------------

DR Peak RMS Duration Track
----------------------------------------
DR5 -0.30 dB -6.35 dB 2:45 01-Freaks In Uniforms
DR5 -0.24 dB -6.69 dB 3:34 02-Hit 'N' Run
DR6 -0.30 dB -7.34 dB 2:18 03-Bring It On!
DR6 -0.30 dB -7.05 dB 3:28 04-It's Been So Long
DR6 -0.30 dB -6.65 dB 2:52 05-Undefeated
DR5 -0.30 dB -7.15 dB 4:01 06-You vs. Me
DR6 -0.30 dB -6.78 dB 2:51 07-Crawl Straight Home
DR5 -0.30 dB -6.39 dB 3:20 08-Trapped
DR6 -0.30 dB -6.85 dB 4:07 09-Walk Like A Zombie
DR4 -0.30 dB -5.66 dB 3:05 10-Where You Can't Follow
DR5 -0.30 dB -6.14 dB 2:59 11-Caught In A Blond
DR6 -0.30 dB -7.22 dB 3:26 12-S.O.B.
DR6 -0.30 dB -7.10 dB 2:50 13-Who's Leading You Now
----------------------------------------

Number of tracks: 13
Official DR value: DR5

Samplerate: 44100 Hz
Channels: 2
Bits per sample: 16
Bitrate: 1022 kbps
Codec: FLAC
================================================================================

CUETools Log


[CUETools log; Date: 09.03.2016 14:45:00; Version: 2.1.5]
[CTDB TOCID: 9PxHb88y9DATgrPZyEA8g88A.NA-] found.
Track | CTDB Status
1 | (10/10) Accurately ripped
2 | (10/10) Accurately ripped
3 | (10/10) Accurately ripped
4 | (10/10) Accurately ripped
5 | (10/10) Accurately ripped
6 | (10/10) Accurately ripped
7 | (10/10) Accurately ripped
8 | (10/10) Accurately ripped
9 | (10/10) Accurately ripped
10 | (10/10) Accurately ripped
11 | (10/10) Accurately ripped
12 | (10/10) Accurately ripped
13 | (10/10) Accurately ripped
[AccurateRip ID: 0013c3c7-00c72494-a909bf0d] found.
Track [ CRC | V2 ] Status
01 [f4ee74eb|f7b44c56] (17+05/22) Accurately ripped
02 [48322ada|e3327662] (17+05/22) Accurately ripped
03 [918cec17|74a2f30e] (17+05/22) Accurately ripped
04 [fa26e0a1|749e8bf0] (17+05/22) Accurately ripped
05 [10f21af2|719d1c25] (17+05/22) Accurately ripped
06 [ead7e4ed|c9efe606] (17+05/22) Accurately ripped
07 [1a1c64ad|bac5eb40] (17+05/22) Accurately ripped
08 [d784ae6b|6716f4a0] (17+05/22) Accurately ripped
09 [acf6c356|c316cdbf] (17+05/22) Accurately ripped
10 [41b3b27a|8c243b68] (17+05/22) Accurately ripped
11 [3712b26e|e9a71945] (17+05/22) Accurately ripped
12 [a33cd1f4|516e1145] (17+05/22) Accurately ripped
13 fe8c8db|e3377cf7 (16+05/21) Accurately ripped

Track Peak [ CRC32 ] [W/O NULL] [ LOG ]
- 97,2 [60316469] [A36AA7C7] CRC32
01 96,6 [AE3C92C1] [E91A31C8]
02 97,2 [1D67B01E] [7E0F7E19]
03 96,6 [38E5995B] [68B556B3]
04 96,6 [38EAA40F] [47D7941E]
05 96,6 [2B171E4C] [CC05EDC7]
06 96,6 [49DE0335] [21B1DF21]
07 96,6 [8F031B8E] [D75B25CA]
08 96,6 [7C913821] [FEB123DF]
09 96,6 [EC8DC9AF] [DCFC8943]
10 96,6 [EC2D4CEF] 3E84AD4
11 96,6 [F68C24E8] [8C471050]
12 96,6 [59909351] [283CD42B]
13 96,6 0088ADD [A2E756A7]
Download link:

Buy Premium To Support Me & Get Resumable Support & Max Speed:



Links are Interchangeable - No Password - Single Extraction
Direct Download

Tags: HorrorPops

Comments
Name:*
E-Mail:*
Add Comments:
Enter Code: *