Download Now

Pat Travers And Carmine Appice - The Balls Album (2016)

Pat Travers And Carmine Appice - The Balls Album (2016)
EAC Rip | FLAC (Img) + Cue + Log ~ 559 Mb | MP3 CBR320 ~ 197 Mb
Scans Included (JPG, 600 dpi) | RAR 5% Recovery
Blues-Rock, Hard Rock | Purple Pyramid Records #CLO 0202

A supercharged, full throttle piece of real deal rock and roll majesty by two of the hottest driving forces in classic rock, vocalist/guitarist Pat Travers and drummer Carmine Appice! United once again, this dynamic duo pull off some of the bluesiest ball busters of all-time like Taken, or the fist-pumping anthem Rock Me plus two bonus tracks that include a monster cover of Barry White s Never Gonna Give You Up!

Track List:

01. Taken [05:26]
02. Better from a Distance [04:31]
03. Escape the Fire [04:55]
04. Rock Me [04:26]
05. I Don't Care [04:48]
06. Remind Me to Forget You [04:41]
07. Hey You [04:41]
08. I Can't Let You Go [04:45]
09. Never Saw It Coming [04:49]
10. Stand Up [05:19]
11. Keep on Rockin' [03:48]
12. Gotta Have Ya [04:47]
13. Tonite (Bonus Track) [04:38]
14. Never Gonna Give You Up (Bonus Track) [06:48]

EAC Log


Exact Audio Copy V1.0 beta 3 from 29. August 2011

Отчёт EAC об извлечении, выполненном 5. марта 2016, 9:49

Pat Travers and Carmine Appice / The Balls Album

Дисковод: ATAPI iHAS424 A Adapter: 0 ID: 0

Режим чтения : Достоверность
Использование точного потока : Да
Отключение кэша аудио : Да
Использование указателей C2 : Нет

Коррекция смещения при чтении : 6
Способность читать области Lead-in и Lead-out : Нет
Заполнение пропущенных сэмплов тишиной : Да
Удаление блоков с тишиной в начале и конце : Нет
При вычислениях CRC использовались нулевые сэмплы : Да
Интерфейс : Установленный внешний ASPI-интерфейс

Выходной формат : Пользовательский кодировщик
Выбранный битрейт : 1024 kBit/s
Качество : Высокий
Добавление ID3-тега : Нет
Утилита сжатия : C:\Program Files\Exact Audio Copy\FLAC\FLAC.EXE
Дополнительные параметры : -8 -V -T "ARTIST=%artist%" -T "ALBUM=%albumtitle%" -T "DATE=%year%" -T "GENRE=%genre%" -T "COMMENT=ripped by izia1956" %source%

TOC извлечённого CD

Трек | Старт | Длительность | Начальный сектор | Конечный сектор
-----------------------------------
1 | 0:00.00 | 5:25.30 | 0 | 24404
2 | 5:25.30 | 4:30.64 | 24405 | 44718
3 | 9:56.19 | 4:54.05 | 44719 | 66773
4 | 14:50.24 | 4:25.31 | 66774 | 86679
5 | 19:15.55 | 4:47.48 | 86680 | 108252
6 | 24:03.28 | 4:40.29 | 108253 | 129281
7 | 28:43.57 | 4:40.09 | 129282 | 150290
8 | 33:23.66 | 4:44.33 | 150291 | 171623
9 | 38:08.24 | 4:48.54 | 171624 | 193277
10 | 42:57.03 | 5:18.09 | 193278 | 217136
11 | 48:15.12 | 3:47.49 | 217137 | 234210
12 | 52:02.61 | 4:46.34 | 234211 | 255694
13 | 56:49.20 | 4:37.12 | 255695 | 276481
14 | 61:26.32 | 6:47.13 | 276482 | 307019

Характеристики диапазона извлечения и сообщения об ошибках

Выбранный диапазон

Имя файла D:\BitComet\Pat Travers and Carmine Appice - The Balls Album (2016)\Pat Travers and Carmine Appice - The Balls Album.wav

Пиковый уровень 97.6 %
Скорость извлечения 3.2 X
Качество диапазона 100.0 %
CRC теста C15D373A
CRC копии C15D373A
Копирование... OK

Ошибок не произошло


AccurateRip: сводка

Трек 1 отсутствует в базе данных
Трек 2 отсутствует в базе данных
Трек 3 отсутствует в базе данных
Трек 4 отсутствует в базе данных
Трек 5 отсутствует в базе данных
Трек 6 отсутствует в базе данных
Трек 7 отсутствует в базе данных
Трек 8 отсутствует в базе данных
Трек 9 отсутствует в базе данных
Трек 10 отсутствует в базе данных
Трек 11 отсутствует в базе данных
Трек 12 отсутствует в базе данных
Трек 13 отсутствует в базе данных
Трек 14 отсутствует в базе данных

Ни одного трека нет в базе AccurateRip

Конец отчёта

==== Контрольная сумма отчёта AFED524CDC2C7DBA21F5B9DEF7DA53DFF516C270D8ECF090C069E430CF02A53B ====

DR Log


foobar2000 1.2.6 / Dynamic Range Meter 1.1.1
log date: 2016-03-06 00:35:14

----------------------------------------
Analyzed: Pat Travers and Carmine Appice / The Balls Album
----------------------------------------

DR Peak RMS Duration Track
----------------------------------------
DR6 -0.21 dB -8.19 dB 5:25 01-Taken
DR6 -0.21 dB -7.06 dB 4:31 02-Better from a Distance
DR6 -0.21 dB -9.25 dB 4:54 03-Escape the Fire
DR6 -0.21 dB -7.10 dB 4:25 04-Rock Me
DR6 -0.21 dB -7.77 dB 4:48 05-I Don't Care
DR6 -0.21 dB -7.17 dB 4:40 06-Remind Me to Forget You
DR6 -0.21 dB -8.26 dB 4:40 07-Hey You
DR6 -0.21 dB -7.94 dB 4:44 08-I Can't Let You Go
DR5 -0.21 dB -7.03 dB 4:49 09-Never Saw It Coming
DR7 -0.21 dB -8.50 dB 5:18 10-Stand Up
DR6 -0.21 dB -7.37 dB 3:48 11-Keep on Rockin'
DR6 -0.21 dB -7.18 dB 4:46 12-Gotta Have Ya
DR7 -0.21 dB -8.56 dB 4:37 13-Tonite (Bonus Track)
DR7 -0.21 dB -8.61 dB 6:47 14-Never Gonna Give You Up (Bonus Track)
----------------------------------------

Number of tracks: 14
Official DR value: DR6

Samplerate: 44100 Hz
Channels: 2
Bits per sample: 16
Bitrate: 1027 kbps
Codec: FLAC
================================================================================

CUETools Log


[CUETools log; Date: 06.03.2016 0:35:15; Version: 2.1.5]
[CTDB TOCID: 8bOSI.ceC68HCckscmIY744i36Q-] disk not present in database.
[AccurateRip ID: 002292fb-016ffe42-d30ffd0e] disk not present in database.

Track Peak [ CRC32 ] [W/O NULL] [ LOG ]
- 97,6 [C15D373A] [925892F1] CRC32
01 97,6 [55A6311F] [638D74E2]
02 97,6 [14D3447D] [9F2B4E23]
03 97,6 [D63BBAD3] [8D148633]
04 97,6 [FAB338FD] [81548C84]
05 97,6 [7D77FE8D] [5857F0A9]
06 97,6 [2FB0B99E] [64A07620]
07 97,6 [43A5A117] [4D5A066C]
08 97,6 [890EACAB] [CDDF19ED]
09 97,6 [4F2C09A9] [F2F30A95]
10 97,6 [975165F5] [1460DDF2]
11 97,6 [9E5A170D] [53834DBB]
12 97,6 [E32B9E3B] [81E2DF37]
13 97,6 [925F6C14] [C17BB58C]
14 97,6 [9B95F523] [C1481FB5]
Download link:

Buy Premium To Support Me & Get Resumable Support & Max Speed:



Links are Interchangeable - No Password - Single Extraction
Direct Download

Tags: Travers, Carmine, Appice

Comments
Name:*
E-Mail:*
Add Comments:
Enter Code: *